This file was generated by Ched 2.6.4.0.
#TITLE ""
#ARTIST ""
#DESIGNER ""
#DIFFICULTY 0
#PLAYLEVEL
#SONGID ""
#WAVE ""
#WAVEOFFSET 0
#JACKET ""
#REQUEST "ticks_per_beat 480"
#00002: 4
#BPM01: 76
#00008: 01
#TIL00: ""
#HISPEED 00
#MEASUREHS 00
#02012:2400000000130000
#0201b:00130013
#02016:0000000000000013
#02017:0023
#0201a:24
#0201f:21
#02114:00000013
#02112:0000000000130000
#02116:0000000000000013
#02117:0000130000130000
#02119:00000013
#0211b:0000000023000013
#02110:41
#02214:00130013
#02216:0000001300130000
#02219:00130013
#02217:0013000000000000
#0221b:0000001300130000
#02212:0013000023000000
#02817:0000000000001212
#02812:00130000
#01112:0000000000000013
#01110:41
#0121b:00130013
#01212:0000000000130013
#01215:0013000000001300
#01218:2300000000130013
#01915:00000013
#01918:0012001200000013
#0191b:0013
#01912:0013
#01916:12120000
#00318:0000220000000013
#0031b:00000013
#00316:1222
#00314:00000022
#0041b:00000000000013130000000000000000
#00416:00000000000000130000000000000000
#00419:00000000000000000000131300000000
#00414:00000000000000000000001300000000
#00417:0000000000000013
#00410:41
#00518:0000000000000013
#0051b:00000013
#00512:00000013
#0061b:00000000000013130000000000000000
#00616:00000000000000130000000000000000
#00619:00000000000000000000131300000000
#00614:00000000000000000000001300000000
#00617:0000000000000013
#00715:0000000000000013
#00712:00000013
#00812:00000000000013130000000000000000
#00817:00000000000000130000000000000000
#00814:00000000000000000000131300000000
#00819:00000000000000000000001300000000
#00816:0000000000000013
#00810:41
#00915:0000000000000013
#00912:00000013
#0091b:00000013
#01012:00000000000013130000000000000000
#01017:00000000000000130000000000000000
#01014:00000000000000000000131300000000
#01019:00000000000000000000001300000000
#01016:0000000000000013
#0131b:12120000
#01315:0012001200000000
#01319:00001212
#01313:0000000000120000
#01312:0000000000000013
#0141b:00130013
#01412:0000000000130013
#01415:0013000000001300
#01418:1300000000130013
#0151b:12120000
#01515:0012001200000013
#01519:00001212
#01513:0000000000120000
#01510:41
#01618:0013000000130013
#0161b:00130013
#01612:1300000000130013
#01615:00000013
#0161f:11
#0171c:12
#01716:0012000000000000
#01719:00120000
#01713:0000001200000000
#0171b:0012
#01715:0000000000120013
#01718:00000012
#01818:0013000000130013
#0181b:00130013
#01812:1300000000130013
#01815:00000013
#02318:00000013
#02315:0000000000000013
#02312:00130000
#02316:0024
#0231b:00230000
#0271b:00130013
#02712:0000230000130000
#02716:0024
#0241b:0000000000130000
#02412:24130013
#02417:0000000000000013
#02416:0023
#0241a:24
#02519:00000013
#0251b:0000000000130000
#02517:0000000000000013
#02516:0000130000130000
#02514:00000013
#02512:0000000023000013
#02510:41
#02619:00130013
#02617:0000001300130000
#02614:00130013
#02616:0013000000000000
#02612:0000001300130000
#0261b:0013000023000000
#02052:14
#0205b:00630000
#02056:0000000000000063
#02057:0013
#0205a:14
#0215b:0013
#02157:00530000
#02252:0013
#02356:0014
#02452:14530000
#02457:0000000000000053
#02456:0013
#0245a:14
#0265b:0013
#02756:0014
#02556:00630000
#02552:0013
#000340:1200002200000000
#000380:0000000012000022
#001360:1200002200000000
#0013a0:0000000012000022
#002340:1200002200000000
#002380:0000000012000022
#004350:13
#004320:00230000
#004370:00000000000000000000000000000013
#0053b0:0023
#004321:00000000000000000000000000000013
#005361:0023
#006351:13
#006321:00230000
#006321:00000000000000000000000000000013
#007361:0023
#006370:00000000000000000000000000000013
#0073b0:0023
#008380:13
#0083b0:00230000
#008360:00000000000000000000000000000013
#009320:0023
#0083b1:00000000000000000000000000000013
#009371:0023
#010381:13
#0103b1:00230000
#010361:00000000000000000000000000000013
#011321:0023
#0103b0:00000000000000000000000000000013
#011370:0023
#012350:0000001300000000
#012320:0023
#014350:0000001300000000
#014320:0023
#016320:0000001300000000
#016350:0023
#018320:0000001300000000
#018350:0023
#0203b0:00130000
#020370:0023
#020360:0000000000000013
#021320:0023000000000000
#021370:00130000
#0213b0:0023
#022320:0000000000000013
#023360:23
#022371:0000000000000013
#0233b1:23
#024321:00130000
#024361:0023
#024371:0000000000000013
#0253b1:0023000000000000
#025361:00130000
#025321:0023
#0263b1:0000000000000013
#027371:23
#026360:0000000000000013
#027320:23
#0273b0:0000000000000013
#028370:0023000000000000
#028320:0000001300000000
#028360:0000000000230000
#029370:12
#029350:0036
#031370:22
