This file was generated by Ched 2.6.4.0.
#TITLE ""
#ARTIST ""
#DESIGNER ""
#DIFFICULTY 0
#PLAYLEVEL
#SONGID ""
#WAVE ""
#WAVEOFFSET 0
#JACKET ""
#REQUEST "ticks_per_beat 480"
#00002: 4
#BPM01: 76
#00008: 01
#TIL00: ""
#HISPEED 00
#MEASUREHS 00
#00314:0000000022000012
#0031a:0000000000000012
#00318:0012
#0031c:12
#00312:00000022
#00316:00220000
#00518:00000012
#0051c:00120000001200000000000000001200
#00517:12000000120012000012000000120000
#00512:00121212
#00515:12
#0071a:0000000022000012
#00714:0000000000000012
#00712:00121200
#00719:12
#00717:12
#0071c:00220000
#00718:00000022
#0141c:12000000120000120000000000001200
#01417:0012121200000000
#01412:0012001200120000
#01415:0012
#0141a:00000012
#01416:00000000000000000000001200001200
#01414:00000012
#01418:00000000000000000000120000120000
#01617:00001200120012120000000000000000
#0161c:0012001200120012
#01612:12121212
#0161f:11
#01616:0000000000120012
#01618:00000012
#01614:00000000000000000000001200000000
#0161a:00000000000000000000000000120000
#01817:00001200120012120000000000000000
#01812:0012001200120012
#0181c:12121212
#01818:0000000000120012
#01816:00000012
#0181a:00000000000000000000001200000000
#01814:00000000000000000000000000120000
#02815:00000012
#02819:00000012
#02817:00000012001200120000000000001200
#0281b:0012001200120000
#02813:0012120012120000
#0281c:12
#02217:13000013000000002300001300130000
#0221b:00000013001300001300001300130000
#02212:0013000000131313
#02216:0013130000131300
#02219:00000000000000130000000000000013
#02215:00000000001300000000000000000000
#01914:00000000000000000000120000120000
#01912:1212121200000012
#01916:00120012001200120000000012000000
#01918:0000121200000000
#0191c:00001200001200000000000000000000
#0191a:12
#02316:0000000000130000
#02318:0000001200000012
#0231a:00121212
#0231c:0012000000120000
#0231b:13
#02312:00000013001300002300000013001400
#02315:00000000230000130000000000130000
#02317:0013000000000000
#0041c:22000000120000120000120012000012
#00417:00000012000012121200001212001200
#00412:12000000000012001200001200000012
#00410:41
#0091c:12120012
#00919:0000000000000012
#00915:0000001200000000
#00912:12121212
#00917:00120000001200000012000000120000
#01116:0000000000000012
#01114:00000012
#01119:0000001200000000
#0111c:12120000
#01112:12120000
#01117:00120000001200000000000000000000
#01110:41
#01217:0012001200000000
#01212:22000000120000120000000000001200
#01218:16000000000000000000001200001200
#0121c:0000000000120000
#01214:00000012
#0121a:00000012
#01216:00000000000000000000120000120000
#01219:0012
#02714:00121200
#02716:0013001200000000
#02712:1312000000120012
#02718:00000000230000130000000000000000
#0271b:00000013001300002300000000000000
#02717:00000000000000000000001200120012
#0271c:0000000000121200
#00118:00000000120000000000001200000000
#0011c:1200000000000000000000000000000000000000000000000012000000000000
#00116:00000012
#00112:0012
#00114:0000001200000000
#00212:0000001200001200
#00216:0012
#0021c:00000000120000000000001200000000
#00218:1200000000000000000000000000000000000000000000000012000000000000
#00012:12000012
#00016:0000001212000000
#0001c:0000000000000000120000000000000000000000000000000012000000000000
#00018:12000000000000000000001200000000
#00612:00000000120000120000120012000012
#00617:00000012000012121200001212001200
#0061c:12000000000012001200001200000012
#02012:14000000150014002300000013000013
#02017:00000012120012121200121212121213
#0201b:00000013000000130000130000001300
#02016:00140000000000000000000000000000
#0201a:0014000000000000
#0201f:21
#02018:26
#02117:12121200121212131200000000130000
#0211b:00000013000013002300001300130000
#02112:00001300000000130000130013000000
#02116:00000013000000000000130000000000
#02115:00000000000000000000001300000000
#02114:00000000000000000000000000000013
#02110:41
#02412:26001413000000130000130000001300
#0241a:1400001400000000
#0241b:00000000000000002300000013000013
#02417:00000012120012121200121212121200
#02419:00150000
#02416:00140000000000000000000000000013
#02517:12121213121212001200130000000000
#02512:00000013000013002300001300130000
#0251b:00001300000000130000130013000000
#02516:00000000000000130000000000130000
#02518:00000000000000000000001300000013
#02510:41
#02616:13000013000000002300001300130000
#02612:00000013001300001300001300130000
#0261b:0013000000131313
#02617:0013130000131300
#02618:00000000001300000000000000000000
#02614:00000000000000130000000000000013
#0131c:1212121200000012
#01314:12120000
#01312:00001200001200000012001200120012
#01316:0000001212121212
#0131a:0000000000121200
#01318:00120012001200120000000000120000
#00812:00000012000012001200001200001200
#0081c:12000000120000120000120012000000
#00817:12000000000012121200001212000000
#00819:00000000000000000000000000000012
#00815:00000000000000000000000000000012
#00810:41
#0101c:00000012000012001200001200001200
#01012:00000000120000120000120012000000
#01017:12000000000012121200001212000000
#01015:00000000000000000000000000000012
#01019:00000000000000000000000000000012
#01716:00000000120012000012001200120012
#0171a:0000000000120000
#01718:00120012001200120000000012001200
#01712:00001200001200001200120012001200
#01714:12
#0171c:12001200120012000000000000120000
#01512:1212121200000012
#0151a:12120000
#0151c:00001200001200000012001200120012
#01518:0000001212121212
#01514:0000000000121200
#01516:00120012001200120000000000120000
#01510:41
#00552:00005252
#00555:32
#00557:52000000520000003222000000220000
#0055c:00220000002200000000000000000000
#02257:00000053000000003300002300230000
#02252:0023000000535353
#02256:00230053
#0225b:00000000005300000000000000230000
#02352:0033
#01258:66
#01257:0000006200000000
#01252:00000000000000220000000000000000
#0275b:0043
#02757:00000000000000000000002200220022
#02752:0000000000520052
#0275c:00000062
#00752:00525200
#00759:42
#00757:62
#00158:00000000220000000000005200000000
#0015c:6200000000000000000000000000000000000000000000000022000000000000
#00156:00000022
#00152:0052
#00252:00000022
#00256:0062
#0025c:00000000220000000000006200000000
#00258:5200000000000000000000000000000000000000000000000022000000000000
#00052:00000022
#00056:0062
#0005c:0000000000000000220000000000000000000000000000000022000000000000
#00058:52000000000000000000005200000000
#00358:0052
#0035c:62
#02052:54353300
#0205b:0000000000000063
#02058:16
#02056:00240000000000000000000000000000
#02057:00000000000000000000000000000023
#0215b:00000000000063004300002300000000
#02152:0053000000005300
#02156:00000023000000000000530000000000
#02157:00000000000000230000000000230000
#0245a:64
#02459:00450000
#02452:1600000000000053
#02456:00240000000000000000000000000023
#0245b:0043
#02552:00000000000053003300002300000000
#0255b:0063000000006300
#02557:00000023000000000000630000000000
#02556:00000000000000230000000000230000
#00457:00000022000000004200000062000000
#00452:5252
#0045c:42
#00652:32
#0065c:6262
#00657:00000022000000003200000052000000
#00952:42005252
#00957:00220000002200000022000000220000
#0095c:62624200
#0115c:32
#01152:52523200
#01157:00220000002200000000000000000000
#02857:00000022002200220000000000000000
#0285b:0062006200000000
#02853:00520000
#0265b:0023000000636363
#02656:00000063000000004300002300230000
#02657:00230063
#02652:00000000006300000000000000230000
#01354:32
#01356:0000000062626262
#01352:00000000000000000022002200220022
#01358:00220022002200220000000000000000
#0135c:6262626200000000
#01457:0000005200000000
#0145c:00000000000000220000000000000000
#01852:0000005200000000
#01857:00000000000000220000000000000000
#01052:32000052
#0105c:00000022000000006200000000000000
#01057:5232
#00852:00000022000000005200000000000000
#0085c:42000062
#00857:6242
#0165c:0000006200000000
#01657:00000000000000220000000000000000
#01754:42
#01758:00220022002200220000000000000000
#0175c:6262626200000000
#01756:00000000000000000022002200220022
#01752:0000000052525252
#0155a:42
#01558:0000000052525252
#0155c:00000000000000000022002200220022
#01556:00220022002200220000000000000000
#01552:5252525200000000
#0195a:32
#01956:00220022002200220000000000000000
#01952:5252525200000000
#000380:1222
#0003c0:00520000
#000361:0012
#000321:00000052
#001361:22
#000380:00000000000000000000001200002200
#0003c0:0000000000000000000000000000000000000000000000000052000000000000
#0013c0:1222
#001380:00520000
#001321:0012
#001361:00000052
#002321:22
#001380:00000000000000000000001200002200
#0013c0:0000000000000000000000000000000000000000000000000052000000000000
#002380:1222
#0023c0:00520000
#002361:0012
#002321:00000052
#003361:22
#0023c0:00000000000000000000001200002200
#002380:0000000000000000000000000000000000000000000000000052000000000000
#0033c0:12
#003380:0000002200000000
#003380:0012
#0033c0:00000022
#004320:12220000
#004370:00520052000000000000000000000000
#004320:0012
#004370:0000000000220000
#004370:00000012
#004320:0000000000000022
#005370:12522200
#0053c0:00520000005200000000000000000000
#005321:00001252
#005371:00000000000000000052000000520000
#006321:22
#0063c0:12220000
#006370:00520052000000000000000000000000
#0063c0:0012
#006370:0000000000220000
#006370:00000012
#0063c0:0000000000000022
#007370:1200002200000000
#007320:00520000
#007320:0012
#007360:00000022
#008370:12220000
#008320:00520052000000000000000000000000
#008320:0012
#008370:0000000000220000
#0083c0:00000012
#008370:0000000000000022
#0093c0:12522200
#009370:00520000005200000000000000000000
#009321:00001252
#009371:00000000000000000052000000520000
#010321:22
#010370:12220000
#0103c0:00520052000000000000000000000000
#0103c0:0012
#010370:0000000000220000
#010320:00000012
#010370:0000000000000022
#011320:12522200
#011370:00520000005200000000000000000000
#0113a1:0012
#012381:36
#0123a1:0000002200000000
#012370:0000001222000000
#012320:00000000000000520000000000000000
#0133c0:1252525222000000
#013380:00520052005200520000000000000000
#013361:0000000012525252
#013321:00000000000000000052005200520052
#014361:22
#014371:0000001222000000
#0143c1:00000000000000520000000000000000
#015321:1252525222000000
#015361:00520052005200520000000000000000
#015380:0000000012525252
#0153c0:00000000000000000052005200520052
#016380:22
#0163c0:0000001222000000
#016370:00000000000000520000000000000000
#0173c0:1252525222000000
#017380:00520052005200520000000000000000
#017321:0000000012525252
#017361:00000000000000000052005200520052
#018321:22
#018321:0000001222000000
#018371:00000000000000520000000000000000
#019321:1252525222000000
#019361:00520052005200520000000000000000
#0193a0:0012
#020380:26
#020321:1424000000000000
#020361:00540000000000000000000000000000
#0203b1:0000000000000013
#020371:00000000000000000000000000000053
#0213b1:23
#021321:0013230000000000
#021361:00000053000000000000000000000000
#0213b1:0000001323000000
#021371:00000000000000530000000000000000
#021361:0000000000132300
#0213b1:00000000000000000000005300000000
#021320:0000000000001323
#021370:00000000000000000000000000530000
#021361:0000000000000013
#0223b1:23
#022321:0013230000000000
#022371:00000053000000000000000000000000
#022360:0000132300000000
#0223b0:00000000005300000000000000000000
#022321:0000001300000000
#022371:0023
#022321:0000000000133333
#022371:00000000000000000000005300530000
#023371:23
#022360:0000000000001323
#0223b0:00000000000000000000000000530000
#0243a1:1424000000000000
#024361:00540000000000000000000000000000
#024321:0000000000000013
#024361:00000000000000000000000000000053
#025321:23
#0253b1:0013230000000000
#025371:00000053000000000000000000000000
#025321:0000001323000000
#025361:00000000000000530000000000000000
#025371:0000000000132300
#025321:00000000000000000000005300000000
#0253b0:0000000000001323
#025360:00000000000000000000000000530000
#025371:0000000000000013
#026321:23
#0263b1:0013230000000000
#026361:00000053000000000000000000000000
#026370:0000132300000000
#026320:00000000005300000000000000000000
#0263b1:0000001300000000
#026361:0023
#0263b1:0000000000133333
#026361:00000000000000000000005300530000
#027361:23
#026370:0000000000001323
#026320:00000000000000000000000000530000
#027321:0000000000122200
#027371:00000000000000000000005200000000
#0273c0:0000000000001222
#027370:00000000000000000000000000520000
#027321:0000000000000012
#027371:00000000000000000000000000000052
#028321:22
#0283b1:0012220000000000
#028371:00000052000000000000000000000000
#028330:0000122200000000
#028370:00000000005200000000000000000000
#0283b1:0000001222000000
#028371:00000000000000520000000000000000
#029321:1c
#0293c1:0022
#029320:001a
#031320:22
