This file was generated by Ched 2.6.4.0.
#TITLE ""
#ARTIST ""
#DESIGNER ""
#DIFFICULTY 0
#PLAYLEVEL
#SONGID ""
#WAVE ""
#WAVEOFFSET 0
#JACKET ""
#REQUEST "ticks_per_beat 480"
#00002: 4
#BPM01: 76
#00008: 01
#TIL00: ""
#HISPEED 00
#MEASUREHS 00
#0031a:00000014
#00316:0000000000000014
#00412:14
#0041a:0014
#00416:00000014
#00410:41
#0051a:00000014
#00516:0000000000000014
#00612:14
#0061a:0014
#00616:00000014
#00712:00000014
#00716:0000000000000014
#0081a:14
#00812:0014
#00816:00000014
#00810:41
#00912:00000014
#00916:0000000000000014
#0101a:14
#01012:0014
#01016:00000014
#01112:0000000000000014
#01110:41
#01214:14
#01216:0014000000001400
#01218:00140000
#01212:0000000000000014
#01312:0000000000000014
#0131a:14
#01316:00140000
#01414:14
#01416:0014000000001400
#01418:00140000
#01412:0000000000000014
#0151a:1400000000000014
#01517:00140000
#01510:41
#01618:14
#01616:0014000000001400
#01614:00140000
#0161a:0000000000000014
#0161f:11
#0171a:0000000000000014
#01712:14
#01715:00140000
#01818:14
#01816:0014000000001400
#01814:00140000
#0181a:0000000000000014
#0191a:00000014
#01914:0000000000000014
#01912:14
#01915:00140000
#02018:0014000000000000
#02016:00001414
#0201a:2400000000140000
#0201f:21
#02112:0000140000140014
#0211a:00140014
#02114:00000014
#02118:0000000000140014
#02110:41
#02214:0014001400000000
#0221a:0014001400001400
#02218:00140000
#02212:0000140000140000
#02217:0000000000140000
#02215:00000014
#02312:00001414
#02317:0014
#02318:0000000000000014
#02414:0014000000000000
#02416:00001414
#02412:2400000000140000
#0251a:0000140000140014
#02512:00140014
#02518:00000014
#02514:0000000000140014
#02510:41
#02618:0014001400000000
#02612:0014001400001400
#02614:00140000
#0261a:0000140000140000
#02615:0000000000140000
#02617:00000014
#0271a:0000000014140000
#02715:0014
#02716:00000014
#02712:0000000000000014
#0281a:0013000000000000
#02817:00130000
#02814:0000001300000000
#02819:0000000000130000
#02816:00000013
#02813:0000000000000013
#0205a:64140000
#02058:0024000000000000
#02454:0024000000000000
#02452:54140000
#01356:00240000
#0135a:64
#0155a:64
#01557:00240000
#01752:54
#01755:00240000
#01952:54
#01955:00240000
#000390:1323
#001340:1323
#002390:1323
#003340:1323
#005320:14
#005360:0024
#007320:14
#007360:0024
#0093a0:14
#009360:0024
#0113a0:14
#011360:0024
#0123a0:0000001400240000
#0133a0:1424
#013360:00540000
#0143a0:0000001400240000
#0153a0:1424
#015370:00540000
#016320:0000001400240000
#017320:1424
#017350:00540000
#018320:0000001400240000
#019320:1424
#019350:00540000
#0203a0:14240000
#020380:0054000000000000
#020320:0000000000000014
#021360:0024000000000000
#022320:0000000000000014
#023350:00240000
#022371:0000000000000014
#0233a1:00240000
#024321:14240000
#024341:0054000000000000
#0243a1:0000000000000014
#025361:0024000000000000
#0263a1:0000000000000014
#027371:00240000
#026350:0000000000000014
#027320:00240000
#0293a0:14
#029380:0036
#0313b0:23
