This file was generated by Ched 2.6.4.0.
#TITLE ""
#ARTIST ""
#DESIGNER ""
#DIFFICULTY 0
#PLAYLEVEL
#SONGID ""
#WAVE ""
#WAVEOFFSET 0
#JACKET ""
#REQUEST "ticks_per_beat 480"
#00002: 4
#BPM01: 130
#00008: 01
#TIL00: ""
#HISPEED 00
#MEASUREHS 00
#0061a:14
#0071a:14
#00814:14
#00810:41
#03312:16
#03318:0016
#03412:16
#03418:0016
#03512:1616
#03818:16
#03812:0016
#03810:41
#04512:14
#04518:0014
#01818:14
#01912:14
#01910:41
#02018:14
#02112:14
#03612:1616
#00914:14
#01018:14
#01118:14
#01212:14
#01312:14
#0141a:14
#01514:14
#0161a:14
#01714:14
#03118:2616
#03218:1616
#03718:16
#03712:0016
#0431a:14
#04314:0014
#0441a:14
#04612:14
#05112:1616
#05218:1616
#05318:0016
#05312:16
#05612:1616
#05412:1616
#04912:0016
#04918:26
#0491f:21
#05018:1616
#05010:41
#05518:1616
#06118:16
#06112:0016
#06418:16
#06412:0016
#06618:14
#06714:14
#0681a:14
#06912:14
#03013:14
#03019:14
#06518:16
#0391f:11
#00515:00260000
#02910:41
#06010:41
#0223a0:14
#0233a0:24
#024320:14
#025320:24
#026380:14
#027380:24
#028340:14
#029340:24
#039380:1434
#040380:3424
#041340:1434
#042340:3424
#047350:16363636
#048350:3626
#057380:16
#058380:26
#059320:16
#060320:26
#062380:1626
#063320:1626
