This file was generated by Ched 2.6.4.0.
#TITLE ""
#ARTIST ""
#DESIGNER ""
#DIFFICULTY 0
#PLAYLEVEL
#SONGID ""
#WAVE ""
#WAVEOFFSET 0
#JACKET ""
#REQUEST "ticks_per_beat 480"
#00002: 4
#BPM01: 130
#00008: 01
#TIL00: ""
#HISPEED 00
#MEASUREHS 00
#00618:0013131300000013
#00615:00000013001300000000000013000000
#00612:2313
#0061b:2300000000130000
#00712:1313
#00718:00130000000013000000000000000000
#00715:00001300001300000000000000000000
#0071b:00130013
#01212:1300000013130000
#0121b:0000001300001300
#01218:0013
#01318:1300000000130000
#01315:0000001300000013
#0131b:00001313
#01312:00001313
#01415:00130000
#01418:00000000001300000000000000000000
#01412:2300001300000013
#0141b:23000000000000130000000000000000
#0151b:00000013000000130000000000001300
#01518:00130000001300000000130000000000
#01515:0013001300000000
#01512:00131300
#01615:00000023000000130000130000000000
#0161b:00231300
#01612:00000000002300000000000000001300
#01618:0023001300000000
#0171b:00001300000000130000000000001300
#01712:00130000
#01718:00000000001300000000130000000000
#01715:0000001300000000
#01716:0013000000000000
#0191b:13131300
#01912:00130000001300000013000000000000
#01918:0013001300130000
#01915:00000013000000130000000000000000
#01916:00000000000000000000001300000000
#01917:0000000000000013
#01910:41
#02017:13000013000000000000000000001300
#02012:0013000000000000
#02016:00000000000013001300001300000000
#0201b:0000000000130000
#02212:2313000000130000
#0221b:2300130000000013
#02216:00000000001300000000000000000013
#02219:0000001300000000
#02214:00000000000000130000000013000000
#02217:00001300000000001300001300000000
#02312:0013000000001300
#02319:1313
#02317:00000013000000000000000000000000
#02314:00130000
#0231b:0000001300130000
#02316:00000000000000130000000000000000
#02412:0013000013000000
#02414:00130000
#02419:00000000001300000000000000000013
#02416:13000000000013000000001300001300
#0241b:13000000000000130000000013000000
#02418:0000000000130000
#02417:00000013000000000000000000000000
#02514:13
#02517:00130000130000000000000000000000
#02516:0000001300000013
#0251b:0000001300000000
#02512:0013
#03018:00130000000000000000000000000000
#03015:13000013000000000000000000000000
#0301b:00000000001300000000000000000000
#03012:00000000000000130000001400140000
#0301a:0000000014140014
#03016:00000000000000000014000014000014
#03116:0014001400001300
#03114:0000000000000013
#0311b:00000013
#0311a:2424
#03112:24240000
#03217:13000000000000130000000000000000
#03216:00000013000000000000000013000000
#0321b:0013000000001300
#03212:13
#03219:0000000000000013
#03317:13000013000000000000130000001300
#0331b:00000013
#03312:1313000000000000
#03316:00000000000000130000000000000000
#0341b:1313
#03418:0013130000130000
#03412:00000000130000000000001300000000
#03415:1300001313000000
#03912:23000013
#0391b:0000000000000013
#03916:0000000000000013
#0391f:11
#03918:23
#04018:13
#0401b:00000013
#04012:1300000000000013
#04017:0013000000000013
#04014:00000013000000000000000000000000
#04118:0013001300130013
#04115:23000013001300000000001300130000
#0411b:23001313
#04112:00000000000000130013000000000013
#04215:0013001300130000
#04218:00130000000000130013000000001300
#0421b:00000013001300000000001300000000
#04212:00131300
#04318:00000013
#0431b:0000000000000013
#04312:0000000000000013
#04415:1313130000000000
#04418:00130013000000000000000000000000
#0441b:0000001300000000
#04412:0000001300000000
#0451b:1313000000000013
#04516:00130000000000000000000000001300
#04512:00000013001300000000130000000000
#04517:00130000
#04519:00000013
#04514:00000013
#0461b:00000000000013000000000000130000
#04615:0000000013001313
#04618:00000000000000000013001300000013
#04612:0000001300130000
#0461a:14
#04616:00140000000000000000000000000000
#04712:1313
#0471b:00130013
#04812:1300000000140014
#0481b:0013000000000000
#04815:00130000
#04818:0000001300000000
#04816:00000000000000001400000014000014
#0481a:00000000000000000014001400140000
#05812:0013000000000000
#05818:00000013000000001300001300000000
#05815:00000000130000130000130000000000
#0581b:0000001300000000
#0591b:0000131313130000
#05912:00000000000000000013001300130000
#05919:00000013
#05916:00000000001300000000000000000000
#05914:00000000000000130000000000000000
#05917:0000000000000013
#06018:13000000001300000000130000000000
#06015:00000000130000000000001300000000
#06012:0000001300000000
#0601b:00000013
#06010:41
#06512:0013000000000000
#0651b:00130000
#06517:0013
#06516:0000000000000013
#06514:23
#06519:23
#06617:0013000000000000
#0661b:0000001300000000
#06615:0000000000130000
#06618:00000013
#06612:0013000000000000
#06616:0000001300000000
#06912:13
#06918:13
#0681b:0013000000130000
#06818:00000000130000130000000013000000
#06815:00000013000000001300000000001300
#06812:0000001300000000
#06814:13
#06819:13
#00812:1300000000130000
#00815:0013131300000013
#00818:00000013001300000000000013000000
#0081b:1313
#00810:41
#0091b:1313
#00915:00130000000013000000000000000000
#00918:00001300001300000000000000000000
#00912:00130013
#0101b:1300130000000013
#01018:0013001300130000
#01015:00000013000000001300000000000000
#01012:13000000001300000000000013000000
#01115:13000000001300000000000000000000
#01118:00130000130000000000000000000000
#01112:0013000000000000
#0111b:0000001300000000
#01116:0013
#01117:00000013
#01812:00001300000000130000000000001300
#0181b:00130000
#01815:00000000001300000000130000000000
#01818:0000001300000000
#01817:0013000000000000
#0261b:1313000013000013
#02619:00130000
#02614:00000000001300000000000000000000
#02617:00000000000013000000001300000000
#02612:00000000000000130000000013000000
#02615:0000000000130000
#02616:13000013000000000000000000001300
#02715:13130000
#02718:00130000001300000000000000000000
#02712:0013001300000000
#0271b:00000013000000130000000000000000
#02717:0000000000000013
#02812:1313001300000013
#02818:00000013000000000000000000000000
#02815:00130000
#02817:1300001300000000
#02816:0013
#0281b:0013
#02916:13131300
#02912:0013001300001300
#0291b:00000000000000000013000000000013
#02914:0000000000130000
#02919:00000000000000000000001300000000
#02910:41
#03716:13000013000000000000130000001300
#03712:00000013
#0371b:1313000000000000
#03717:00000000000000130000000000000000
#03812:1313
#03815:0013130000130000
#0381b:00000000130000000000001300000000
#03818:1300001313000000
#03810:41
#03516:0014001400000000
#03517:00000013
#03519:0000000000000013
#03512:24002413
#0351a:24240000
#0491a:2400001400000000
#04916:0014240000000000
#04912:24002413
#04919:0000000000000013
#04917:00000013
#04914:0000000000000013
#0491f:21
#0501b:13000013
#05017:00000013000000000000000000000000
#05016:13000000000000130000000013000000
#05014:0000000000000013
#05019:0000000000000013
#05010:41
#05116:00000013000000000000130000001300
#05117:13000000000000130000000013000000
#0511b:0000000000130013
#05112:13000013
#05212:00000000000000001300000000140000
#0521b:13
#05218:0000000000130000
#05215:00000000000000000000001300000000
#0521a:00000000000000000000000000140000
#05312:0014000000140000
#05316:2400001424000014
#0531a:24240024
#05416:0014240000142400
#0541a:0000001400000014
#05412:2424
#05512:14141414
#05518:00001300000000000000130000000013
#05515:0000001300000013
#0551a:00141414
#05617:0013000000000000
#05616:0000000000000013
#0571b:1313
#05717:00130013
#05716:1313
#05712:00130013
#05719:0033003300330033
#0571a:00000000000000330000000000000033
#05718:00000033000000000000003300000000
#05714:0033003300330033
#05715:00000000000000330000000000000033
#05713:00000033000000000000003300000000
#06112:2400001400000000
#06116:0014240000001300
#0611b:00000013
#06114:0000000000000013
#06119:0000000000000013
#0611a:2424
#06212:13000013
#06216:00000013000000000000000000000000
#06217:13000000000000130000000013000000
#06219:0000000000000013
#06214:0000000000000013
#06317:00000013000000000000130000001300
#06316:13000000000000130000000013000000
#06312:0000000000130013
#0631b:13000013
#0641b:0013
#06412:13000000000000000000000000140000
#06415:0000000000130000
#06418:00000000000000000000001300000000
#0641a:00000000000000000000000000140000
#0671b:0013000000000000
#06712:00130000
#06716:0013
#06717:0000000000000013
#06714:13
#06719:13
#02112:13131300
#0211b:00130000001300000013000000000000
#02115:0013001300130000
#02118:00000013000000130000000000000000
#02117:00000000000000000000001300000000
#02116:0000000000000013
#03616:13000000000000130000000000000000
#03617:00000013000000000000000013000000
#03612:0013000000001300
#0361b:13
#03614:0000000000000013
#00512:002c0000
#00317:00323232
#00416:34
#00415:00360000
#00414:0038
#00413:0000003a
#00752:0053
#0095b:0063
#01156:0053
#01157:00000053
#01252:13
#01452:0000000000000013
#0155b:0000000000000013
#01652:0000000000000013
#0175b:0000000000000013
#01852:0000000000000013
#01956:00000000000000000000005300000000
#01952:0000000000000013
#02057:00000063000000000000000000000000
#02056:00000000000000000000005300000000
#0205b:0000001300000000
#02052:0000000000000013
#02357:00000033
#02359:1353
#0235b:0000000000230000
#02352:00000033
#02354:00130000
#02856:0013
#02952:00000053
#0315a:54440000
#03156:0024002400000000
#03152:34643400
#03257:00000000000000430000000000000000
#03556:0024002400000000
#03552:64340000
#0355a:44544400
#0395b:0000000000000013
#04052:0000000000000013
#04255:0000000000000013
#0435b:0000000000000013
#04752:5353
#0475b:00630063
#04956:0024540034000000
#0495a:4400002400000000
#04952:54340000
#05056:00000000000000330000000000000000
#05157:00000000000000430000000000000000
#05352:0024000000240000
#05356:6400002464000024
#0535a:00640064
#0545a:4400002400000024
#05456:0024540034245400
#05452:54345434
#05757:00530053
#0575b:5353
#05756:5353
#05752:00530053
#0605b:00000043
#06152:3400002400000000
#06156:0024640044000000
#0615a:64440000
#06257:00000000000000430000000000000000
#06252:00000000000000330000000000000000
#06356:00000000000000330000000000000000
#0635b:00000000000000430000000000000000
#06658:00000043
#06655:0000000000330000
#02556:0000000000000013
#02757:0000000000000013
#03452:00000000000000000000005300000000
#03458:0000000000530000
#0385b:00000000000000000000006300000000
#03855:0000000000630000
#02157:00000000000000000000006300000000
#0215b:0000000000000013
#03356:00000000000000330000000000000000
#03656:00000000000000330000000000000000
#03757:00000000000000430000000000000000
#002370:12323232
#003370:32323232
#004360:34
#004350:00360000
#004340:0038
#004330:0000003a
#005320:2c
#007320:0013
#007360:00000023
#0093b0:0013
#009370:00000023
#011360:0013
#011320:00000023
#011371:00000013
#0123b1:23
#012351:00000013
#013351:23
#014381:0013230000000000
#014361:0013
#014321:00000000000000000000002300000000
#0143b0:00000000000000000000001300000000
#014370:0000000000000023
#015350:00000000000000000000001300002300
#016380:00000000000000000000001300002300
#017320:0000000013230000
#017350:00000000000000000000001300002300
#0183b0:0000000013230000
#018380:00000000000000000000001300002300
#019360:00000000000000000000001300000000
#019320:0000000000000023
#020370:00000013000000000000000000000000
#0203b0:0000002300000000
#020360:00000000000000000000001300000000
#020320:0000000000000023
#021370:00000000000000000000001300000000
#0213b0:0000000000000023
#023390:0013
#0233b0:0000000000530000
#023370:00000023
#025320:0013230000000000
#025370:0000000013230000
#025321:0000000000132300
#0253b0:0000000000001323
#027360:0000000013230000
#0273b1:0000000000132300
#027320:0000000000001323
#028370:0000000000000013
#0293b0:33330000
#029370:0033002300000000
#029320:00000013
#029360:00000000000000000000000000000023
#0313a0:14240000
#031360:0054000000000000
#031321:00142400
#031361:0000005400000000
#032321:00000000001300230000000000000000
#0333b1:00000000001300230000000000000000
#033321:0000000000130023
#033361:00000033
#034381:0000000000130000
#0343b1:00000000000000000000000000230000
#034320:00000000000000000000001300000000
#034350:00000000000000000000000000230000
#035320:14240000
#035360:0054000000000000
#0353a1:00142400
#035361:0000005400000000
#0363b1:00000000001300230000000000000000
#037321:00000000001300230000000000000000
#0373b1:0000000000130023
#037371:00000033
#038351:0000000000130000
#038321:00000000000000000000000000230000
#0383b0:00000000000000000000001300000000
#038380:00000000000000000000000000230000
#0393b0:0013230000000000
#039361:00130000
#039351:00000000003300000000000000000000
#039341:0000003300000000
#039331:00000000000000330000000000000000
#039321:0023
#0393b0:0013
#0393a0:00000000000000000033000000000000
#039390:0000000000330000
#039380:00000000000000000000003300000000
#039370:00000023
#040370:00130000
#040380:00000000003300000000000000000000
#040390:0000003300000000
#0403a0:00000000000000330000000000000000
#0403b0:0023
#040321:0013
#040331:00000000000000000033000000000000
#040341:0000000000330000
#040351:00000000000000000000003300000000
#040361:00000023
#042321:00000013
#042351:0000000000000023
#0433b1:13332300000000000000000000000000
#043350:00001333230000000000000000000000
#043381:00000000133323000000000000000000
#043320:00000000000013332300000000000000
#0433b1:00000000000000001333230000000000
#043350:00000000000000000000133323000000
#044370:0013
#044390:00000000000000000033000000000000
#0443b0:0000000000230000
#044361:0000000000130000
#044341:00000000000000000000003300000000
#044321:00000023
#044370:00000013
#044390:00000000000000000000000000330000
#0443b0:0000000000000023
#044361:0000000000000013
#044341:00000000000000000000000000000033
#045321:23
#0453b1:0000001300000000
#0453a1:00000000000000330000000000000000
#045391:0033
#045381:00000000000000000033000000000000
#045371:0000000000230000
#047321:13
#047361:00230000
#0473b0:00130000
#047370:0023
#047321:0013
#047361:00000023
#0473b0:00000013
#048370:23
#049320:14240000
#049360:0054000000000000
#049361:00142400
#0493a1:0000005400000000
#050321:00001323000000000000000000000000
#0503b1:00000000001300230000000000000000
#0513b1:00001323000000000000000000000000
#051321:00000000001300230000000000000000
#052321:1323000000000000
#052380:0013230000000000
#052351:0000132300000000
#0523b0:0000001323000000
#053360:14240000
#053320:0054000000000000
#0533a1:00142400
#053361:0000005400000000
#053360:00001424
#053320:0000000000540000
#0533a1:00000014
#053361:0000000000000054
#0543a1:24
#054320:14240000
#054360:0054000000000000
#054361:00142400
#0543a1:0000005400000000
#054320:00001424
#054360:0000000000540000
#054361:00000014
#0543a1:0000000000000054
#055361:24
#056321:0013000000000000
#056341:00000033000000000000000000000000
#056361:00230000
#0563b0:0000132300000000
#056361:0000001300000000
#056321:0023
#0563b0:0013
#056370:0000000000230000
#056321:0000000000132300
#056370:00000013
#0563b0:0000000000000023
#0573b0:1333
#057390:0033003300330033
#057380:00000033000000000000003300000000
#057370:00330033
#0573a0:00000000000000330000000000000033
#0583b0:23
#057361:1333
#057341:0033003300330033
#057331:00000033000000000000003300000000
#057321:00330033
#057351:00000000000000330000000000000033
#058361:23
#058321:00000013
#059321:23
#0583b0:0000000000000013
#0593b0:23
#059360:0013230000000000
#060350:1323000000000000
#0603b1:0013230000000000
#060321:0000000013230000
#0613a1:14240000
#061361:0054000000000000
#061360:00142400
#061320:0000005400000000
#0623b0:00001323000000000000000000000000
#062320:00000000001300230000000000000000
#063320:00001323000000000000000000000000
#0633b0:00000000001300230000000000000000
#0643b0:1323000000000000
#064351:0013230000000000
#064380:0000132300000000
#064321:0000001323000000
#065341:00000000000000001300002300000000
#065390:00000000000000000000001300002300
#067390:00000000000000001300002300000000
#067341:00000000000000000000001300002300
