This file was generated by Ched 2.6.4.0.
#TITLE ""
#ARTIST ""
#DESIGNER ""
#DIFFICULTY 0
#PLAYLEVEL
#SONGID ""
#WAVE ""
#WAVEOFFSET 0
#JACKET ""
#REQUEST "ticks_per_beat 480"
#00002: 4
#BPM01: 130
#00008: 01
#TIL00: ""
#HISPEED 00
#MEASUREHS 00
#00612:2313
#00618:2300000000130000
#00615:00000013
#0061b:0000000000000013
#0121b:13
#01218:0000001300130000
#01215:1313
#01318:0000001300000013
#0131b:0000000000130000
#01315:0013
#01312:00000013
#0171b:0013000000000000
#01715:00130000
#01718:0000001300130000
#01712:0013
#0171a:00000000000000000000003300000000
#0191b:1313
#01912:0013000000000000
#01918:0000130000330000
#01915:0000001300000000
#01919:00000000000000000033000000000000
#01910:41
#0221b:2300130000000013
#02215:0000001300001300
#02212:0013000013000000
#02218:0000000000130000
#02415:1313
#0241b:1300001300000013
#02412:0013000000001300
#02418:0000130000130000
#03118:00000013
#03112:0000000024000013
#03116:24
#0311a:00240000
#0321b:13000000000000130000000000001300
#03218:00000013000000000000000000000000
#03215:0013000000001300
#03212:00000000001300000000000000000000
#03912:2300000000000013
#03918:0000130000000013
#03915:0013000000000000
#0391b:23000000000000331333000000000000
#0391f:11
#03919:00000000003300000000003300000000
#0391a:0000003300330000
#04118:0000000013000000000013000000000000000000000033133300000000000000
#04115:00000013000013000000000000000000
#0411b:0013
#04112:23
#0411a:00000000000000000033000000003300
#04119:00000000000000000000330000330000
#04218:0013000000130000
#04212:00130013
#0421b:0000001300000013
#04215:00130000000000001300000000000000
#0431b:0000000000000013
#04312:1313
#04316:00130000
#04313:00330000000000330033000000000000
#04314:0033003300330000
#04315:00000033003300000000003300000000
#04412:13000000000000000000331333000000
#04418:0013000000000000
#04415:00131300
#0441b:0000001300000000
#04413:00000000000000000033000000330000
#0451b:1313
#04515:0013000000130000
#04518:00130013
#04512:0000001300000013
#04612:0000001300000013
#0461b:0013
#04615:0000000000130000
#04618:14000013
#04614:00140000000000000000000000000000
#0471b:13
#04717:0013000000000000
#04712:0013
#04716:0000000000130000
#04818:13130000
#04815:0013001300000000
#0481a:00001414
#04812:0000000000140014
#05917:00000000000000000013000000000000
#05912:00130000
#05915:13000000000033000000003300000000
#05918:0013000000000000
#05914:00000000003300000000000033000000
#05916:00000000000000333300330000000000
#05913:00000000000000000000000000330000
#0651b:0013000000000000
#06518:00130000
#06512:26
#06618:0000000000130000
#06615:00000013
#0661b:0013000000000000
#06612:0000001300000000
#06915:13
#0681b:0000000000130000
#06812:16000013
#06818:00001300130000130000000000001300
#06815:00000013000013001300000000000000
#0101b:13130000
#01015:00001313
#01018:0013000000130013
#01012:13
#0101a:00000033003300000000000000000000
#01112:0013
#01113:00330000000000000000000000000000
#01119:00000000003300000000000000000000
#02312:13
#02318:0013000000000000
#02315:00130000
#0231b:0000001300000000
#02815:0013130000000000
#02818:00000013000013000000000000000000
#02812:0013
#0281b:1300000000000013
#02915:1313
#02918:00001300000000000000130000000013
#02912:00130013
#0291b:0000001300000000
#02910:41
#0401b:1300000000000013
#04015:0013000000000013
#04012:00000000003333133300000000000000
#04014:00000033000000000000333300000000
#04013:00000000330000000033000000000000
#04912:00240013
#0491b:0000000000000013
#04918:00000013
#0491a:24
#04916:0024
#0491f:21
#05015:00000013000000000000000013000000
#05012:1300000000000013
#05018:0013000000000000
#0501b:00000013
#05010:41
#05515:0013000000130013
#05518:13000000000000001300000000000013
#05512:1300001300000000
#0551b:00130013
#0571b:1313
#05717:00130013
#05719:0033003300330033
#0571a:00000000000000330000000000000033
#05718:00000033000000000000003300000000
#00715:0013
#00815:1300000000130000
#0081b:1313
#00818:00000013
#00812:0000000000000013
#00810:41
#0141b:0013000000000000
#01415:00130000
#01418:0000001300000000
#01412:26
#01518:0013000000000000
#01515:00130000
#0151b:0000001300000000
#01512:0013
#01612:0000001300000000
#0161b:0013
#01615:0023000000000000
#01618:00230000
#01812:0013000000000000
#01818:00130000
#01815:0000001300130000
#0181b:0013
#01813:00000000000000000000003300000000
#02012:13
#0201b:0013
#02014:00330000000000000000000000000000
#02015:0033000000000000
#02019:00000000000000000033000000000000
#02018:0000000000330000
#02112:1313
#0211b:0013000000000000
#02115:0000130000330000
#02118:0000001300000000
#02114:00000000000000000033000000000000
#02515:13
#02518:0013000000000000
#02512:00130000
#0251b:0000001300000000
#02618:1313
#02612:1300001300000013
#0261b:0013000000001300
#02615:0000130000130000
#02718:13
#02715:0013000000000000
#0271b:00130000
#02712:0000001300000000
#03312:13000000000000130000000000000000
#03315:00000013000000000000000013000000
#03318:0013000000130013
#0331b:00000000001300000000000000000000
#03515:00000013
#0351b:0000000000000013
#03516:24
#03512:00240000
#0351a:0024
#03612:13000000000000130000000000001300
#03615:00000013000000000000000000000000
#03618:0013000000001300
#0361b:00000000001300000000000000000000
#0371b:13000000000000130000000000000000
#03718:00000013000000000000000013000000
#03715:0013000000130013
#03712:00000000001300000000000000000000
#05118:00000013000000000000000013000000
#0511b:1300000000130000
#05115:0013000000000013
#05612:0013000000000013
#0561b:0013000000000013
#05616:00130013
#05619:0000001300130000
#05614:0013
#0581b:0000000000000013
#05815:0000000000131300
#05818:00000000000000000000001300000000
#05813:00000033000000000000000000000000
#0581a:00000000000000330000000000000000
#06015:1313
#0601b:1313
#06018:0013000000000000
#06012:0013000000000000
#06013:00000000003300000000000000000000
#0601a:00000000000000000000003300000000
#06010:41
#06712:0013000000000000
#06715:00130000
#06718:16
#03015:13000000000000000000003300000000
#03012:00000033003300331300000000000000
#03013:00330000000000000033000000000000
#03014:0000000000330000
#03016:00000033
#03017:00000000000000000000000000333333
#00918:0013
#05416:0014000000140000
#05412:24
#0541a:0024
#05218:0013001300130000
#05215:00000000130000000000001300000000
#05212:1313
#0521b:00000000000000000000000000130000
#03412:1313
#03418:0000001300130000
#03415:00000000130000000000001300000000
#0341b:00001300000000000000000000130000
#0381b:1313
#03815:0000001300130000
#03818:00000000130000000000001300000000
#03812:00001300000000000000000000130000
#03810:41
#0611b:00000013
#06112:2400000000000013
#06115:00000013
#0611a:00240000
#06116:0024
#06218:00000013000000000000000013000000
#0621b:1300000000000013
#06215:0013000000000000
#06212:00000013
#06315:00000013000000000000000013000000
#06312:1300000000130000
#06318:0013000000000013
#06415:0013001300130000
#06418:00000000130000000000001300000000
#0641b:1313
#06412:00000000000000000000000000130000
#00512:00260000
#05312:24
#0531a:0024
#0041b:33330000
#0041a:0034
#00419:00000035
#0031b:00333333
#01152:0053
#02852:0013
#0435b:0000000000000013
#04356:00630000
#04352:5353
#0475b:63
#04757:0023000000000000
#04752:0053
#04756:0000000000230000
#05352:64
#0535a:0054
#05757:00530053
#0575b:5353
#00755:0063
#0195b:0053
#01958:0000000000000013
#02052:63
#02055:0000001300000000
#0205b:0053
#02058:0000000000000013
#02152:0063
#02155:0000000000000013
#02352:00000013
#02358:00000013
#03156:14
#0315a:00140000
#03152:0014
#0325b:00000000000000130000000000000000
#03352:00000000000000130000000000000000
#03652:00000000000000130000000000000000
#0375b:00000000000000130000000000000000
#03556:14
#03552:00140000
#0355a:0014
#0425b:0000000000000013
#0495a:44
#04952:00340000
#04956:0014
#0505b:00000000000000130000000000000000
#05152:00000000000000130000000000000000
#05957:00000000000000000023000000000000
#05952:00530000
#06655:00000013
#03055:63
#03052:0053
#0105b:00230000
#01058:0053000000000000
#00958:0053
#04055:0063000000000000
#04052:00000000000000230000000000000000
#0415b:0063
#04158:0000000000000000000000000000000000000000000000230000000000000000
#0395b:0023
#03958:00530000
#04455:0063
#04452:00000000000000000000002300000000
#01758:0000000000530000
#01855:0000000000630000
#05456:0024000000240000
#05452:54340000
#0545a:00006444
#06152:34
#0615a:00440000
#06156:0014
#06252:00000000000000130000000000000000
#0635b:00000000000000130000000000000000
#0023b0:13333333
#0033b0:33333333
#0043b0:33330000
#0043a0:0034
#004390:00000035
#005380:26
#0063b0:0013000000000000
#0063a0:00000033000000000000000000000000
#006390:00330000
#006380:00000000003300000000000000000000
#006370:0000002300000000
#007320:13332300000000000000000000000000
#0073b0:00000000133323000000000000000000
#007350:0013
#007320:00000023
#008320:0013000000000000
#008330:00000033000000000000000000000000
#008340:00330000
#008350:00000000003300000000000000000000
#008360:0000002300000000
#0093b0:13332300000000000000000000000000
#009320:00000000133323000000000000000000
#009380:0013
#0093b0:00000023
#010380:0013002300000000
#0103a0:00000033003300000000000000000000
#0103b0:00330000
#011320:13
#011330:00330000000000000000000000000000
#011350:0023000000000000
#0113b0:00130000
#011390:00000000003300000000000000000000
#011380:0000002300000000
#011320:0013
#011350:00000023
#012320:00000013
#013320:23
#014320:0013
#014350:00000000000000000000003300002300
#015380:00000000000000000000133300002300
#016350:00000000000000000000133300002300
#017380:0000000000130000
#0173a0:00000000000000000000003300000000
#0173b0:0000000000000023
#018350:0000000000130000
#018330:00000000000000000000003300000000
#018320:0000000000000023
#0193b0:0013
#019390:00000000000000000033000000000000
#019380:00000000000000000000333300002300
#020320:13
#020340:00330000000000000000000000000000
#020350:00003333000023000000000000000000
#0203b0:0013
#020390:00000000000000000033000000000000
#020380:00000000000000000000333300002300
#021320:0013
#021340:00000000000000000033000000000000
#021350:00000000000000000000333300002300
#023380:00001323
#023321:00001323
#025351:0000000013230000
#0253b1:0000000000001323
#027381:0000000013230000
#027321:0000000000001323
#030351:13000000000000000000003300000000
#030331:00330000000000000033000000000000
#030321:00000033003300333300000000000000
#030341:0000000000330000
#030361:00000033
#030371:00000000000000000000000000333333
#031361:24
#039381:00130023
#039391:00000000003300000000003300000000
#0393a1:0000003300330000
#0393b1:00000000000000333333000000000000
#040351:0013000000002300
#040341:00000033000000000000333300000000
#040331:00000000330000000033000000000000
#040321:00000000003333333300000000000000
#0413b1:00000000000000001300000000000023
#0413a1:00000000000000000033000000003300
#041391:00000000000000000000330000330000
#041381:0000000000000000000000000000000000000000000033533300000000000000
#043321:1333
#043331:00330000000000330033000000000000
#043341:0033003300330000
#043351:00000033003300000000003300000000
#043361:00330023
#044351:0000000013000023
#044331:00000000000000000033000000330000
#044321:00000000000000000000333333000000
#0473b1:13230000
#047371:0053000000000000
#047321:00001323
#047361:0000000000530000
#0503b1:00000000001300230000000000000000
#051321:00000000001300230000000000000000
#053321:14
#053361:00240000
#0533a1:0014
#053361:00000024
#054321:14240000
#054361:0054000000000000
#0543a1:00001424
#054361:0000000000540000
#0573b1:1333
#057391:0033003300330033
#057381:00000033000000000000003300000000
#057371:00330033
#0573a1:00000000000000330000000000000033
#0583b1:23
#058351:0013000000000000
#058331:00000033000000000000000000000000
#058321:00230000
#058381:0000001300000000
#0583a1:00000000000000330000000000000000
#0583b1:0023
#059321:0000130000000023
#059341:00000000003300000000000033000000
#059351:00000000000033000000003300000000
#059361:00000000000000333300330000000000
#059371:00000000000000000033000000000000
#059331:00000000000000000000000000330000
#060351:00130000
#060331:00000000003300000000000000000000
#060321:0000002300000000
#060381:0000000000130000
#0603a1:00000000000000000000003300000000
#0603b1:00000023
#062321:00000000001300230000000000000000
#0633b1:00000000001300230000000000000000
#065351:0000000013000023
#065321:00000000000000000000003300000000
#067381:0000000013000023
#0673b1:00000000000000000000003300000000
