This file was generated by Ched 2.6.4.0.
#TITLE ""
#ARTIST ""
#DESIGNER ""
#DIFFICULTY 0
#PLAYLEVEL
#SONGID ""
#WAVE ""
#WAVEOFFSET 0
#JACKET ""
#REQUEST "ticks_per_beat 480"
#00002: 4
#BPM01: 130
#00008: 01
#TIL00: ""
#HISPEED 00
#MEASUREHS 00
#0391f:11
#0391a:0014
#03912:00140000
#03914:00000014
#03919:24
#03913:24
#0071a:14
#00714:00140000
#00812:14
#00818:0014
#00810:41
#0101a:14
#01012:0014
#0111a:1414
#01114:00140014
#01312:14
#0131a:0014
#01314:00000014
#01518:1414
#01514:00140000
#01714:1414
#01718:00140000
#04518:0014
#0451a:14
#04514:00140000
#04512:00000014
#05912:14
#05914:0014
#05918:14
#0591a:0014
#06018:14
#0601a:0014
#06012:14
#06014:0014
#06010:41
#0641a:14
#06412:00140000
#06418:0014
#06414:00000014
#06516:14
#06512:0014
#00918:00140000
#00912:14
#02618:14
#02619:00340000
#0261a:0034
#02714:14
#02713:00340000
#02712:0034
#02818:1414
#02814:00140000
#0291a:00140000
#02914:14
#02912:0014
#02918:00000014
#02910:41
#04018:14
#0401a:0014
#04012:00140000
#04113:14
#04119:14
#04112:0014
#0411a:00140000
#04118:00000014
#04214:14
#0421a:00140000
#04212:0014
#0461a:14
#04614:00140000
#04618:0014
#04612:00000014
#05014:14
#05018:00140000
#05013:0014
#05019:0014
#05010:41
#05118:14
#05114:00140000
#05119:0014
#05113:0014
#0521a:14
#05214:00140000
#05218:0014
#05212:00000014
#05518:1400000000140000
#0551a:00140000
#05514:0014000014000000
#05512:00000014
#0561a:1400000000140000
#05618:00140000
#05612:0014000014000000
#05614:00000014
#0571a:14
#05718:0014
#0581a:0014
#05814:0014
#06714:14
#06718:0014
#02219:1414
#02213:00140014
#02318:0014000000000000
#0231a:0000001400000000
#02319:14140014
#02413:1414
#02419:00140014
#02514:0014000000000000
#02512:0000001400000000
#02513:14140014
#03214:00000014
#0331a:00000014
#03412:14
#0341a:00140000
#03414:0014
#03418:00000014
#03712:00000014
#03618:00000014
#00614:0014
#0061a:24
#0121a:14
#01212:0014
#01218:00000014
#03118:26000016
#03115:00260000
#03112:0026
#03512:26000016
#03515:00260000
#03518:0026
#0431a:1414
#04318:00140000
#04412:1414
#04414:00140000
#06212:14
#06216:00140000
#0621a:0014
#0631a:14
#06316:00140000
#06312:0014
#06918:16
#0491f:21
#04912:26
#04918:0026
#0201a:24
#02016:0024
#05318:26
#05312:0026
#05418:26
#05416:00260000
#05414:0026
#05412:00000026
#06112:24
#06118:24
#0611a:0024
#06114:0024
#00216:0034
#00315:3636
#00414:3838
#00513:3a
#01910:41
#03810:41
#06556:14
#02658:54
#02754:64
#02858:0014
#0575a:64
#05758:0024
#02358:0024000000000000
#0235a:0000002400000000
#02359:64540000
#02554:0024000000000000
#02552:0000002400000000
#02553:54640000
#0435a:5454
#04358:00540000
#04452:6464
#04454:00640000
#04858:00000016
#0585a:14
#01859:0014
#01953:0014
#03052:00000016
#00553:001a0000
#02152:0014
#04952:00160000
#04958:00000016
#05358:00160000
#05352:00000016
#002360:1434
#003350:3636
#004340:3838
#005330:3a2a0000
#0073a0:00001424
#009320:00001424
#0143a0:14
#014380:0024
#016320:14
#016340:0024
#018390:1424
#019330:1424
#021320:1424
#023390:14342400
#023380:0054000000000000
#0233a0:0000005400000000
#025330:14342400
#025340:0054000000000000
#025320:0000005400000000
#026380:14
#026390:00340000
#0263a0:00003424
#027340:14
#027330:00340000
#027320:00003424
#030320:14000026
#032320:14
#032330:00340000
#032340:0024
#033380:14
#033390:00340000
#0333a0:0024
#0363a0:14
#036390:00340000
#036380:0024
#037340:14
#037330:00340000
#037320:0024
#0383a0:1434
#038380:00340024
#0433a0:1434
#043380:00340024
#044320:1434
#044340:00340024
#0473a0:14343434
#047390:0054005400540054
#0483a0:3434000000000000
#048390:0000353500000000
#048380:0000000036362600
#049320:16260000
#049380:00001626
#053380:16260000
#053320:00001626
#0573a0:14
#057380:0054
#0583a0:24
#061320:14240000
#061381:14240000
#061341:00001424
#0613a0:00001424
#0663a0:1434000000342400
#066380:0000003400000000
#068320:14343434
#068340:0034003400340024
