This file was generated by Ched 2.7.0.0.
#TITLE ""
#ARTIST ""
#DESIGNER ""
#DIFFICULTY 0
#PLAYLEVEL
#SONGID ""
#WAVE ""
#WAVEOFFSET 0
#JACKET ""
#REQUEST "ticks_per_beat 480"
#00002: 4
#BPM01: 120
#00008: 01
#TIL00: ""
#HISPEED 00
#MEASUREHS 00
#00119:14
#00213:14
#00319:14
#00413:14
#0091a:14
#00910:41
#01014:14
#01118:14
#01212:14
#0131a:14
#01414:14
#01518:14
#01612:14
#02518:14
#0251f:00110000
#02510:41
#02618:14
#02714:14
#02814:14
#0291a:14
#0301a:14
#03112:14
#03212:14
#03412:0016
#03418:26
#0341f:21
#03410:00410000
#03612:16
#03618:0016
#03818:1616
#03912:1616
#04212:0016
#04218:26
#04210:41
#04412:16
#04418:0016
#04618:1616
#04712:1616
#05018:16
#05012:0016
#05010:41
#05212:16
#05218:0016
#05312:16
#05418:16
#05412:0016
#05518:16
#05612:16
#05618:0016
#05712:16
#05718:0016
#03319:24
#03313:24
#01710:41
#0053a0:14
#0063a0:24
#007320:14
#008320:24
#0173a0:14
#018380:24
#019320:14
#020340:24
#021380:14
#0223a0:24
#023340:14
#024320:24
#035380:1626
#037320:1626
#040380:1626
#041320:1626
#043380:1626
#045320:1626
#048380:1626
#049320:1626
#051380:1626
#058320:1626
#059380:1626
