This file was generated by Ched 2.7.0.0.
#TITLE ""
#ARTIST ""
#DESIGNER ""
#DIFFICULTY 0
#PLAYLEVEL
#SONGID ""
#WAVE ""
#WAVEOFFSET 0
#JACKET ""
#REQUEST "ticks_per_beat 480"
#00002: 4
#BPM01: 120
#00008: 01
#TIL00: ""
#HISPEED 00
#MEASUREHS 00
#0011b:00130000
#00115:00000013
#00112:13
#00118:0013
#0011a:0000000000330000
#00114:0033000000000000
#00212:1300130000130000
#00215:00000013
#00218:0000001300000013
#0021b:13
#00315:0000000013000013
#0031b:13
#00312:00130000
#00318:00000013
#00319:0033000000000000
#00313:0000000000330000
#00418:13000013
#00415:0000001300000013
#0041b:0000000000130000
#00712:14000014
#0071a:00141400
#00716:0000001400000014
#00618:1300130000000013
#0061b:0000001300000000
#00612:0000001300000000
#00615:0000000000130000
#00918:0000001300130000
#00915:0000001300001300
#00912:1300000000000013
#0091b:13
#00914:0033000000000000
#00919:0033000000000000
#00910:41
#01018:00130000
#0101b:0013000000000000
#01015:0000001300000000
#01016:0000000000130000
#01014:00000013
#01012:0000130000000013
#01117:0013000000000000
#01119:00130000
#0111b:0000001300000000
#01115:0000000000230023
#01118:00000023
#0131b:0000001300000013
#01315:0000000000130000
#01318:00000013
#01312:0000001300000000
#01313:0033000000000000
#0131a:0033000000000000
#0161b:0000000000001313
#01618:0000000000130000
#01612:0024002400000000
#0161a:24
#01616:00240000
#02218:0000000000130013
#02215:00000013
#02216:00240000
#0221a:0000002400000000
#02212:0024000000000000
#0241b:13000013
#02415:1300000000130000
#02412:00000013
#02418:0000000000000013
#02516:00130000
#02512:1300000000000013
#0251b:00130000
#02517:0013
#02515:00000013
#0251f:00110000
#02510:41
#02615:0013000013000000
#0261b:00131300
#02617:0000001300000000
#02612:00000013
#02618:13
#02815:0013000000000013
#02818:00130013
#02812:0000001300000000
#0281b:0000001300130000
#0321a:0000001400002400
#03216:0000240024000014
#03212:24
#0331a:14
#03312:0000000000130000
#03315:00000013
#03318:0000000000000013
#03415:0000131300001300
#0341b:2300131300000013
#03418:0000000000130000
#03412:0000000000130000
#0341f:21
#03410:00410000
#03515:0000001300000013
#03518:00000013
#0351b:0000000000130000
#03612:1300001300130000
#0361b:0000001300130000
#03618:0013000000001300
#03615:0000130000000013
#03718:13000013
#03712:1300000000242400
#03715:00130000
#0371b:0000000000130013
#03912:0000000000130000
#03918:0023002300000013
#0391b:2300230000130000
#03915:00000013
#0401b:13
#04015:0000000000130013
#04018:00000013
#04017:0000001300000000
#04012:00130000
#04112:1313
#04118:13000000000000130000130000000013
#0411b:00130013
#04115:00000000000013000000001300001300
#05012:0014000000000024
#05016:00140014
#0501a:0000002400140000
#05013:00000000000000000000000000000014
#0501b:23
#05010:41
#0511b:00000013
#05112:0014001400140000
#05114:14141400
#05113:00140014001400140014001400000000
#0591a:1414140014000000
#05916:0000001400000000
#05912:14001400140000140000000000000000
#00816:00140024
#0081a:0000000014000024
#00812:2400000000240000
#0381b:0000001300000000
#03812:0000001300000000
#03818:0000000000000023
#04615:1300000000000013
#04612:0000001300000000
#04618:13000013
#0461b:0000001300000000
#0521b:2313130000130000
#05212:1300000023131300
#05216:0013000000000000
#05217:0013
#05315:2300131300001300
#0531b:2300131300000000
#05312:0000000000130000
#05318:0000000000000013
#05415:0013130000000013
#0541b:23130000
#05418:0000000000131300
#05412:00002313
#05518:13000013
#0551b:0000002300130000
#05515:1300000000000013
#05512:0000002300000000
#0581a:24141400
#05812:14002414
#05816:0000001400000014
#05715:0000000000130000
#05712:2300131300000013
#05718:2300131300000013
#0571b:0000000000130000
#05612:2313130000130000
#0561b:1300000023131300
#05617:0013000000000000
#05616:0013
#02717:00130000
#02712:00130000
#02716:0013
#02718:00000013
#0271b:1300000000000013
#00512:1300000000131300
#0051b:0013130013000000
#00514:0033000000000000
#00519:0000000000330000
#01412:0013000000000000
#0141b:0000130000131313
#01415:13130000
#01418:0013001300000000
#01512:0013131300240000
#0151a:0000000000240024
#01516:00000000000000000000000000000024
#01712:0000131300000000
#01715:0013000000130013
#0171b:0000000000130013
#01718:00000013
#01710:41
#02118:00130013
#0211b:0013001300000013
#02115:0000000000130013
#02012:0000002400130013
#02015:00000013
#0201a:0024000000000000
#02016:00240000
#0181b:00000013
#01818:0013001300130013
#01815:00130000
#01812:0013001300000000
#01912:0000130000000013
#01915:0013001300001300
#01918:0000000000130013
#04218:0000131300001300
#04212:2300131300000013
#04215:0000000000130000
#0421b:0000000000130000
#04210:41
#04318:0000001300000013
#04315:00000013
#04312:0000000000130000
#04515:13000013
#0451b:13
#04518:00130000
#04512:0000000000130013
#0451a:0000000000242400
#0471b:0000000000130000
#04715:0023002300000013
#04712:2300230000130000
#04718:00000013
#04812:13
#04818:0000000000130013
#04815:00000013
#04816:0000001300000000
#0481b:00130000
#0491b:1313
#04915:00000000000000130000130000000013
#04912:0013130000001300
#04918:00000000000013000000001300001300
#0291b:0000130000000013
#02917:0013
#02915:00130013
#02912:1313
#03012:0013130000000000
#0301b:0013
#03018:00130013
#03016:0013
#03112:0000001400002400
#03116:0000240024000014
#0311a:24
#0231b:0000000000130000
#02315:2300230000130000
#02312:0023002300001300
#02318:00000013
#04412:0000001300130000
#04418:0000130000000013
#0441b:1300001300130000
#04415:00001313
#0121a:0000000000240000
#01216:00000024
#01212:0000000000000024
#00158:0063
#00152:63
#0035b:53
#00355:0053
#00458:53
#00455:0000001300000000
#0045b:00130000
#00856:00240000
#00852:54
#02556:00530000
#02557:0063
#02552:13
#0265b:00636300
#02657:0000002300000000
#02852:0000005300000000
#0335a:14
#03455:0000006300000000
#0345b:1300006300000063
#03555:0000001300000000
#03558:00130000
#03758:63
#03755:00130000
#0375b:0000001300000000
#0385b:0000005300000000
#03858:0000000000130000
#03852:0000006300000000
#03855:0000000000130000
#0405b:53
#04057:0000005300000000
#04152:53
#0415b:00130000
#04655:63
#04652:0000006300000000
#04658:53
#0465b:0000005300000000
#05053:00000000000000000000000000000054
#05052:0000000000000024
#0505b:13
#05152:0024002400240000
#05154:24242414
#05153:00540054005400540054005400000000
#05558:53
#0555b:0000001300000000
#05552:0000001300000000
#05555:63
#0585a:1454
#05852:5414
#05252:6313
#0525b:1300000000230000
#05256:0023000000000000
#05257:0063
#05355:1300001300000000
#0535b:1300001300000000
#05752:1300001300000000
#05758:1300001300000000
#0565b:5313
#05657:0023000000000000
#05656:0053
#05652:1300000000230000
#0595a:0014
#00952:5300000000000063
#00958:0000004300000000
#00955:0000003300000000
#0095b:53
#02757:00630000
#02756:0053
#0275b:13
#0545b:13
#05452:0013
#04252:1300005300000053
#04258:0000005300000000
#00552:63
#0055b:0053
#0075a:0064
#00752:64
#01352:0000001300000000
#0135b:0000001300000000
#04358:0000001300000000
#04355:00130000
#04555:53
#04558:00130000
#04552:0000001300000000
#04852:63
#04856:0000006300000000
#0495b:63
#04952:00130000
#0295b:00530000
#02957:0023
#02952:13
#03052:00630000
#03056:0023
#01952:0000000000000053
#0215b:0000000000000063
#0245b:53
#02455:53
#0235b:0000000000530000
#02355:0000000000530000
#02352:00000023
#02358:00000023
#001320:13
#001340:0033000000000000
#001350:00230000
#001380:0013
#0013a0:0000000000330000
#0013b0:00000023
#0033b0:13
#003390:0033000000000000
#003380:00230000
#003350:0013
#003330:0000000000330000
#003320:00000023
#004380:13
#0043b0:00230000
#005320:13
#005340:0033000000000000
#005350:00230000
#0053b0:0013
#005390:0000000000330000
#005380:00000023
#006350:13230000
#007320:14
#007360:00240000
#0073a0:0014
#007360:00000024
#008320:1424
#008360:00540000
#0093b0:13
#009390:0033000000000000
#009380:00230000
#009321:13
#009341:0033000000000000
#009351:00230000
#009321:0000000000000013
#010351:0023000000000000
#0103b1:0000000000133323
#011321:0013332300000000
#0123b1:13330000
#012381:0033002300000000
#012320:13330000
#012350:0033002300000000
#013350:13
#013330:0033000000000000
#013320:00230000
#013381:13
#0133a1:0033000000000000
#0133b1:00230000
#014361:0000000000130000
#014341:00000033
#014321:0000000000000023
#015371:0013000000000000
#015391:00330000
#0153b1:0000002300000000
#0163a1:1424000000000000
#016320:0014240000000000
#016361:0000142400000000
#016351:0000000000130000
#016321:0000000000003323
#017381:0013000000000000
#0173b1:0000332300000000
#018351:0000000000130023
#018321:00000033
#019381:0013002300000000
#0193b1:00330000
#019321:0000000000000013
#020361:0023000000000000
#0203b1:0000000000130023
#020381:00000033
#021321:0013002300000000
#021351:00330000
#0213b1:0000000000000013
#022371:0023000000000000
#0233b1:13330000
#023381:0033002300000000
#023351:0000000000130023
#023321:00000033
#0233b0:0000000000130023
#023380:00000033
#024350:13
#024320:00230000
#0243b1:13
#024381:00230000
#025361:00130000
#025321:0023
#025370:0013
#0253b0:00000023
#0263b0:00133300
#026370:0000005300002300
#027370:00130000
#0273b0:0023
#027361:0013
#027321:00000023
#028321:0000001300000000
#028361:0000000000230000
#0293b1:00130023
#029371:0033
#030321:00130023
#030361:0033
#031361:14
#031321:00240000
#0313a1:0014
#031361:00000024
#032361:14
#0323a1:00240000
#032321:0014
#032361:00000024
#034351:0000001300000000
#034321:0023
#0343b0:0000001300000000
#034380:0023
#0343b0:0000000000000013
#035380:00230000
#037380:13
#0373b0:0000002300000000
#038350:13
#038320:00230000
#038381:13
#0383b1:00230000
#0383b1:0000001300000000
#038381:0000000053230000
#038320:0000001300000000
#038350:0000000053230000
#038350:0000000000000013
#039320:33330000
#039350:0033002300000000
#0403b0:13
#040370:00230000
#040370:0000001300000000
#0403b0:0000000000230000
#041320:13
#041350:00230000
#042380:0000001300000000
#0423b0:0023
#042321:0000001300000000
#042351:0023
#042321:0000000000000013
#043351:00230000
#045351:13
#045321:0000002300000000
#046351:13
#046321:00230000
#046380:13
#0463b0:00230000
#046320:0000001300000000
#046350:0000000000230000
#0463b1:0000001300000000
#046381:0000000000230000
#0473b1:13330000
#047381:0033002300000000
#048321:13
#048361:00230000
#048361:0000001300000000
#048321:0000000000230000
#0493b1:13
#049381:00230000
#050321:0000000000000014
#050331:00000000000000000000000000000034
#051341:34545424
#051331:00540054005400540054005400000000
#051321:0054005400540000
#052321:13230000
#052361:0033000000000000
#052371:00001323
#0523b1:0000000000330000
#055381:13
#0553b1:00230000
#055350:13
#055320:00230000
#0563b0:13230000
#056370:0033000000000000
#056360:00001323
#056320:0000000000330000
#058320:14
#058360:00240000
#0583a0:0014
#058360:00000024
