This file was generated by Ched 2.7.0.0.
#TITLE ""
#ARTIST ""
#DESIGNER ""
#DIFFICULTY 0
#PLAYLEVEL
#SONGID ""
#WAVE ""
#WAVEOFFSET 0
#JACKET ""
#REQUEST "ticks_per_beat 480"
#00002: 4
#BPM01: 120
#00008: 01
#TIL00: ""
#HISPEED 00
#MEASUREHS 00
#00215:0000130000000013
#00218:00000013
#0021b:1300001300000000
#00212:0000000000130000
#00318:0000000000000013
#00319:0033000000000000
#00313:0000000000330000
#0041b:0000000000130000
#00415:00000013
#00418:1300000000000013
#00615:0000130000000013
#0061b:1300001300000000
#00618:0000000000130000
#00918:0000330000130000
#00915:00330013
#00912:13
#0091b:13
#00914:0033000000000000
#00919:0033000000000000
#00910:41
#01018:0000130000000013
#01015:0000001300001300
#01012:0000000000130000
#01115:0013000000230023
#01118:00130023
#0111b:0000001300000000
#01315:1300000000130013
#01318:13000013
#01313:0033000000000000
#0131a:0033000000000000
#01312:00330000
#0131b:00330000
#0161b:0000000000131313
#01614:00003414340000000000000000000000
#01618:00003414340000000000000000000000
#01615:0000000000000013
#01612:24
#0161a:24
#02218:0000000000130000
#02215:00000013
#02212:0000000000000013
#02618:0013000000001300
#02615:1300000000000013
#02612:0000000000130000
#0261b:00130000
#02815:0013000000001300
#02812:00130000
#02818:0000001300000013
#0281b:0000000000130000
#03212:0000001400000000
#03214:0000000000000014
#0331a:14
#03312:0000000000130000
#03315:00000013
#03318:0000000000000013
#03415:0000131300000000
#0341b:2300000000001313
#03412:0013
#0341f:21
#03410:00410000
#03515:00000013
#03518:1300000000000013
#0351b:0000000000130000
#03514:0000141400000000
#03612:13
#0361b:0000001300000000
#03618:0013000000001300
#03615:0000130000130013
#0371b:0000000000000013
#03718:13000013
#03715:0000000000130000
#0391b:0000000000130000
#03918:0000000000000013
#03915:00000013
#03912:24
#03916:0024002400000000
#0391a:00240000
#04015:00000013
#04018:0000000000000013
#04118:00000013
#04115:1300000000000013
#0411b:0000000000130000
#05012:0014000000000024
#05016:00140014
#0501a:0000002400140000
#05013:00000000000000000000000000000014
#0501b:23
#05010:41
#0591a:0000001414000000
#05912:14000000000000140000000000000000
#00716:0000001400000014
#00816:00140000
#0081a:24
#0381b:0000001300000000
#03812:13
#03816:0000000000000024
#04615:0000000000000013
#04618:00000013
#04612:0000001300000000
#0461b:13
#05112:0014001400140000
#05114:14141400
#05113:00140014001400140014001400000000
#05315:00130013
#0531b:2300001300000000
#05312:0000000000130000
#05318:0000000000000013
#0541b:2300000000000013
#05415:0013000000001300
#05418:0000130000130000
#05412:0023
#05515:1300000000130000
#05518:00000013
#0551b:0000002300000013
#05512:0000002300000000
#05715:0000000000130000
#05712:2300001300000014
#0571b:0000000000130000
#05718:00130000
#0581a:0000001414000000
#05812:1400000000000014
#00512:13131313
#0051b:0013000000000000
#00518:0000000000130000
#01418:13000013
#01412:0013000000000000
#01415:0000001300000013
#0141b:0000130000130000
#01712:0000001300000000
#01715:0000000000131313
#01718:0013131300000000
#0171b:0000000000000013
#01710:41
#04918:1300000000000013
#04915:00000013
#04912:0000000000130000
#0291b:0000130000000013
#02917:0013
#02912:13
#03012:0013130000000000
#03016:0013
#03112:0000001400000000
#03114:0000000000000014
#03118:00140000
#0311a:14
#01812:0013131300000000
#01818:0000001300001300
#0181b:0000000000130013
#01815:0000000000000013
#02415:13000013
#02418:0000000000000013
#0241b:0000000000130000
#0231b:0000000000130000
#0231a:24240000
#02312:0024002400000000
#01518:0013000000000000
#01515:00130000
#01512:0000001300240000
#0151a:0000000000240000
#01516:0000000000000024
#01918:0013001300130000
#01915:00130013
#01912:0000001300000000
#02715:00130000
#0271b:1300000000000013
#02712:0013
#04218:0000131300000000
#0421b:0013
#04212:2300000000001313
#04210:41
#04318:0000141400001300
#04315:1300000000000013
#04312:0000000000130000
#0441b:1300001300000000
#04415:00001313
#04412:00130000
#04418:0000000000130013
#04515:13000013
#04512:0000000000000013
#04518:0000000000130000
#02012:0000000000130013
#02015:00000013
#02018:0000000000000013
#02115:0013001300130000
#02118:00130013
#0211b:0000001300000000
#01212:14
#0121a:14
#01214:0034000000000000
#01218:0034000000000000
#04712:0000240000130000
#04715:0000000000000013
#04718:00000013
#0471a:24
#04716:0024002400000000
#04818:00000013
#04815:0000000000000013
#02512:1300000000000013
#0251b:0013
#02518:00130000
#0251f:00110000
#02510:41
#0011a:0000000000330000
#00114:0033000000000000
#00856:00240000
#0085a:64
#0335a:14
#03455:0000006300000000
#0345b:1300000000000063
#03452:0023
#0385b:0000005300000000
#03852:53
#05053:00000000000000000000000000000054
#05052:0000000000000024
#05152:0024002400240000
#05154:24242414
#05153:00540054005400540054005400000000
#0535b:1300001300000000
#0595a:0014
#05952:54
#0555b:0000001300000000
#05552:0000001300000000
#05555:63
#04252:1300000000000053
#04258:0000005300000000
#0425b:0023
#0295b:00530000
#02957:0023
#02952:13
#03052:00630000
#03056:0023
#02455:53
#0235b:0000000000530000
#00458:53
#0045b:0000001300000000
#0095b:53
#00952:53
#00958:0000001300000000
#00955:0000001300000000
#01355:53
#01358:53
#01352:0000001300000000
#0135b:0000001300000000
#01654:00000024000000000000000000000000
#01652:54
#01658:00000024000000000000000000000000
#0165a:64
#0265b:00530000
#02755:00630000
#02752:0023
#0275b:13
#03758:63
#0375b:0000001300000000
#04155:53
#04152:00130000
#04555:53
#04552:0000001300000000
#04958:63
#0495b:00130000
#05752:1300001300000000
#0585a:0054
#05852:54
#01252:54
#0125a:54
#04652:0000006300000000
#0465b:63
#03558:23
#04355:23
#02552:13
#0255b:0023
#02558:00530000
#001320:13
#001340:0033000000000000
#001350:00230000
#001380:0013
#0013a0:0000000000330000
#0013b0:00000023
#0033b0:13
#003390:0033000000000000
#003380:00230000
#003350:0013
#003330:0000000000330000
#003320:00000023
#004380:13
#0043b0:0000332300000000
#0073a0:14240000
#007320:00001424
#0083a0:1424
#008360:00540000
#0093b0:13
#009390:0033000000000000
#009380:0000332300000000
#009321:13
#009341:0033000000000000
#009351:0000332300000000
#009381:0000000000000013
#0103b1:0023000000000000
#0123a1:14
#012381:00003454340024000000000000000000
#012320:14
#012340:00003454340024000000000000000000
#013350:13
#013330:0033000000000000
#013320:0000332300000000
#013381:13
#0133a1:0033000000000000
#0133b1:0000332300000000
#016321:1400002400000000
#016341:00003454340000000000000000000000
#0163a0:1400002400000000
#016380:00003454340000000000000000000000
#019320:0000000000000013
#020360:0033000000000000
#020340:00330000
#020320:0000002300000000
#0213b0:0000000000000013
#022370:0033000000000000
#022390:00330000
#0223b0:0000002300000000
#0233b0:0000000000130000
#023380:0000000000000023
#024350:13
#024320:00230000
#025380:00130023
#0253b0:0033
#0263b0:00130000
#026380:0023
#027350:00130023
#027320:0033
#0293b0:00130023
#029370:0033
#030320:00130023
#030360:0033
#031380:00001424
#0323a0:14240000
#032380:00001424
#034350:0000001300230000
#034320:0033
#0343b0:0000000000000013
#035380:33
#0353b0:0023000000000000
#037380:13
#0373b0:0000332300000000
#038320:13
#038350:00230000
#0383b0:0000001300000000
#038380:0000000000230000
#040320:13
#040350:00230000
#040380:0000001300000000
#0403b0:0000000000230000
#041350:13
#041320:00230000
#042380:0000001300230000
#0423b0:0033
#042320:0000000000000013
#043350:33
#043320:0023000000000000
#045350:13
#045320:0000332300000000
#0463b0:13
#046380:00230000
#046320:0000001300000000
#046350:0000000000230000
#0483b0:13
#048380:00230000
#048350:0000001300000000
#048320:0000000000230000
#049380:13
#0493b0:00230000
#050320:0000000000000014
#050330:00000000000000000000000000000034
#051340:34545424
#051330:00540054005400540054005400000000
#051320:0054005400540000
#052380:13230000
#0523b0:0033000000000000
#052320:00001323
#052350:0000000000330000
#055350:13
#055320:00230000
#056350:13230000
#056320:0033000000000000
#0563b0:00001323
#056380:0000000000330000
#058320:14
#058360:00240000
#0583a0:0014
#058360:00000024
#059320:14
#059360:00240000
