This file was generated by Ched 2.7.0.0.
#TITLE ""
#ARTIST ""
#DESIGNER ""
#DIFFICULTY 0
#PLAYLEVEL
#SONGID ""
#WAVE ""
#WAVEOFFSET 0
#JACKET ""
#REQUEST "ticks_per_beat 480"
#00002: 4
#BPM01: 120
#00008: 01
#TIL00: ""
#HISPEED 00
#MEASUREHS 00
#00215:13130013
#00212:0000001300130000
#00218:1300130000000013
#0021b:0000001300130000
#0031b:1300130000130013
#00315:0013000013001300
#00312:1300000000000013
#00318:0013
#0041b:0013000000130000
#00418:13000013
#00415:1300000000000013
#00412:0013000000130000
#00512:13131313
#00518:0012000000120000
#00515:0000001200000012
#0051a:24242424
#0061b:0013001300000000
#00619:0000000000130000
#00617:1300000000000013
#00612:24242424
#00712:13002424
#00716:0014001400140014
#0071b:0013
#0071a:24240000
#00918:1300131300000000
#00912:00000013000000000000130000000000
#00915:1313001300000000
#00916:0000000000000013
#00917:0000000000130000
#00914:00000013
#0091b:00130000000000000000000000001300
#00919:00000013
#00910:41
#0101b:0013130000130000
#01012:1300000000000000000000001300000000000000001800180000000013000000
#01017:1300001300000000
#01016:0000000000001300130000000000000000000000000000000018001800000000
#01014:00000000000000000000141400000000
#01018:00000000000000000000000014140000
#0111a:0014
#0111b:1300001300000000
#01112:0000000013000000001800180000000014000000000000000000000000000000
#01118:00001414000000000000000000000000
#01116:0000000000180018000000000000000000000000000000000000000000000000
#01114:00000000141400000000000000000000
#01117:0000000000220022
#01115:00000022
#01119:00000022
#0131b:1300001300130000
#01316:0000000000130000
#01314:00000013
#01312:0013001300000013
#01317:0000000000000013
#01319:00000000000000000000000013000033
#01315:13000013000000000000000000000000
#01318:00130000130000000000000000000000
#01614:00000012
#01617:0000000000130000
#01619:00000013
#01616:00000000001400000000000000001200
#01612:2400240000120000
#0161b:0000000000000013
#0161a:2424002400000000
#01915:00001300000000000000001300001300
#01912:00000013000013000000130000000000
#0191a:14141414
#0201a:14141414
#02018:00000000000000000000130000000013
#02012:0023002300001414
#02015:00000000230000130013000000000000
#0201b:0000000000000013
#02215:0000000000130000
#02212:14141414
#0221a:0000000000001414
#02218:00000000230000130013000000000000
#02216:00000000000000000000000000000014
#0221b:0023002300000000
#0231a:14141414
#02318:0012001200120012
#02315:0000000000130000
#02312:24240013
#02316:0022002200000000
#0241a:14141414
#02418:0000001300130000
#02415:00000000000000130000001300000000
#02416:1300000000000014
#02412:00000014
#02618:0012001200120012
#0261c:12120012
#02616:12121200
#02612:0012000000000000
#02814:0012000000000000
#02819:00120000
#02816:0000001200120000
#02812:00001212
#02815:00120000
#0281a:0012000000000000
#02817:12
#02818:0000001200120000
#0281c:00001212
#02912:2400002400001300
#02917:0013130000000013
#0291c:12
#0291b:0013
#03016:0013130000000013
#03012:0013
#0301b:00000013
#0301a:2400002400000000
#0311b:0000001300000000
#03118:0000000000000013
#03112:24242424
#03312:0000000000141414
#0331a:14
#03412:14
#03414:0013000000000000
#03416:0000130013130013
#0341b:2300130000130013
#03417:0000001300001300
#03419:0013000000000000
#0341f:21
#03410:00410000
#03616:0014141414140000
#0361b:0000130013000013
#03612:1400001300130000
#03618:0000000000001313
#03615:00000013
#0361a:14
#03712:0013001300001613
#03715:1300000013220000
#03718:13000000000000130000160000000000
#0371b:0013001300000013
#03719:00000022
#03912:2424000000130000
#03916:00140014001400000000000000001600
#03914:00000014
#0391a:0000242400000000
#04012:1c121c001c121c00
#04018:0012000000120000
#04016:0000001200000012
#0401c:0000001200000012
#0411a:14140000
#04118:00000000000000130000130013000013
#0411b:0013
#04112:1814000000001300
#04115:00000000000013001300001300001300
#05012:1316192c001c1926
#05014:00000000000000000000000000000016
#05018:26
#05010:41
#05815:0000001600000016
#0581c:00121200
#05812:12002612
#05818:26
#05912:16001600160000161c00000000000000
#05918:00140014000016000000000000000000
#0591c:12120000
#00818:00160000
#0081a:1414
#00812:2400000000280000
#00814:00000028
#00816:0000000000000028
#0381b:1300131300000000
#03812:1300131300000016
#03815:00130000000000000000000000000000
#03818:00130000000000000000000000002600
#04615:00130000000013000000130000001300
#04612:13130013
#0461b:13130013
#04618:00130000000013000000130000001300
#05112:0016001600160000
#05116:16161600
#05114:00160016001600160016000000000000
#05113:00000000000000000000001600000000
#0511b:00000013
#05212:00130013
#05217:0013000000000000
#05216:1313
#0521b:2300000023130000
#05214:00330000000000000033000000000000
#05219:00000033000000000000003300000000
#05315:2616161600000000
#0531b:2300001300001300
#05316:0000000000141414
#05312:00000013000000000000130000001300
#05412:2300000023130014
#0541a:0000000000000014
#0541b:00130013
#05416:0013000000000000
#05417:1313
#05419:00330000000000000033000000000000
#05414:00000033000000000000003300000000
#05518:1600002613000000
#0551b:0000000000130013
#05516:0000000000141414
#05515:00000000000000130000000000000000
#05512:2616261300001300
#05712:23000000000013000000130000130000
#05718:00000000000000000000000013000013
#05715:26001600160016000000001300001300
#0571b:00000013000000000000130000000000
#01712:14141414
#0171b:00001300000000000000001300001300
#01718:00000013000013000000130000000000
#01710:41
#02712:12000000001600000000000000160000
#0271c:1200000012000012
#02714:00000000220000000016000022000000
#02718:00120000
#02716:0022
#0251c:12
#02512:1200000012000012
#02518:00000000001600002200000000160000
#02516:00000000120000000016000000000000
#0251f:00110000
#0251a:00220022
#02510:41
#04918:00000000000013000000001300001300
#0491b:00001313
#04915:00000000000000130000130000130013
#04912:14141313
#04916:18
#0491a:0014000000000000
#0141b:1300001300000013
#01412:0013130000130000
#01417:00000013130000000000130000000000
#01416:13000013
#01415:0000001300000000
#02112:14141414
#02118:00001300000000000000001300001300
#0211b:00000013000013000000130000000000
#03212:0000001300000000
#03215:0000000000000013
#0321a:2400240024242424
#01816:00000000000000000000141400000000
#0181a:0000000000001414
#01818:00000013000013000000000000000000
#0181b:0013000000000000
#01812:14141414
#01815:0000000000000013
#01212:13151316141800000000000000002800
#0121b:1313000000000000
#01219:00150000000000000000000000000000
#0121a:00140000
#01218:00000016000000000000000000000000
#01216:000000000000000000000000000000000000000000000000000000000000000000000000000000000000000000000000000000000000000000000000001800000000000000000000000000000000000000000000000000000000000000000000000000000000000000000000000000000000000000000000280000000000000000000000000000000000000000000000000000000000000000000000000000000000000000000000000000000000000000000000000000000000000000000000
#01214:00000028
#0561a:2414140000000000
#05612:0000000024141400
#0351b:0000001300130013
#03518:00000013
#03512:13130000
#03516:0013000000000000
#03515:0000161600000000
#03517:13
#00112:1300130000130000
#00118:0013000013001300
#0011b:13
#00115:0013
#0421b:13
#04217:0000130013130013
#04216:0000001300001300
#04212:2300130000130013
#04214:0013000000000000
#04219:0013000000000000
#04210:41
#0451b:0013001300000013
#04518:13001316
#04512:0013001300160013
#04515:13000000000000130000000022000000
#04519:0000000000220000
#04312:0000001300130013
#04315:0000161600001300
#0431b:13130000
#04317:0013000000000000
#04316:13
#04415:0000000000001313
#04412:1400130013000013
#04418:00000013
#04416:0014141414140000
#0441b:0000001300130000
#0441a:14
#04716:00140014001400000000000000000000
#0471b:0000000000130000
#04714:0000000000000016
#04718:00000014
#0471a:2424000000000000
#04712:0000242400000000
#04812:1c001c121c001c12
#04816:0012000000120000
#0481c:0012000000120000
#04818:0000001200000012
#01516:13000000000000000000000000002424
#01512:0013001300250000
#0151b:00130000
#01519:0000000000250000
#00858:00260000
#00852:54
#00752:53
#00756:0024000000240000
#0075b:0063
#00955:0053003300000000
#00958:5300004300000000
#00956:0000000000000063
#00952:00000023000000000000000000000000
#0095b:00230000000000000000000000000000
#0265c:00620000
#02658:0000002200000000
#02656:0062
#02856:0000006200520000
#02852:00002222
#02858:0000005200620000
#0285c:00002222
#0385b:6300005300000000
#03858:00230000000000000000120000000000
#03852:6300006300000000
#03856:0000000000120000
#03855:00230000000000000000000000000000
#0415a:64
#04152:0054000000000000
#04156:0014140000000000
#04655:00230000000063000000000000000000
#04658:00230000000053000000000000000000
#0465b:53
#04652:53
#05054:00000000000000000000000000000056
#05052:0000000000000026
#05058:16
#05152:0026002600260000
#05156:26262600
#05154:00560056005600560056000016000000
#05153:00000000000000000000005600000000
#05558:5600001600000000
#05556:0000000000141400
#05552:0026000000000000
#0585c:0052
#05858:16
#05852:6216
#0525b:1300000013530000
#05252:00130013
#05257:0053000000000000
#05256:5353
#05952:001c
#01752:14
#0175b:0000000000000053
#01758:0000005300000000
#01955:0000000000000053
#01952:0000005300000000
#0195a:14
#0235a:14
#02355:0000000000530000
#02352:00000023
#0255c:12
#02552:0022
#02558:00000000006600002200000000660000
#02556:00000000520000000066000000000000
#0255a:00220022
#02752:12000000005600000000000000560000
#02754:00000000220000000056000022000000
#0275c:0022
#02756:0022
#02758:00620000
#0345b:1300000000000063
#03456:0000630000630000
#03457:0000005300000000
#00552:6363
#00657:63
#0065b:0053000000000000
#01052:2300000000000000000000000000000000000000002800280000000000000000
#01054:00000000000000000000545400000000
#01058:00000000000000000000000064640000
#01056:0000000000000000000000000000000000000000000000000028002800000000
#01357:0000000000000053
#01352:0063003300000000
#0135b:6300004300000000
#01355:00000023000000000000000000000000
#01358:00230000000000000000000000000000
#0145b:2300000000000053
#01457:0000000000530000
#01456:00000063
#02158:0000000000000063
#02152:14
#0215b:0000005300000000
#0335a:14
#02957:00530000
#0295b:0053
#0295c:12
#03056:00630000
#03052:0063
#00458:63430000
#00455:6300003300000000
#00452:0023000000000000
#0045b:0023000000000000
#01252:53255326542800000000000000000000
#0125b:6363000000000000
#01259:00250000000000000000000000000000
#0125a:00640000
#01258:00000026000000000000000000000000
#01256:000000000000000000000000000000000000000000000000000000000000000000000000000000000000000000000000000000000000000000000000002800000000000000000000000000000000000000000000000000000000000000000000000000000000000000000000000000000000000000000000000000000000000000000000000000000000000000000000000000000000000000000000000000000000000000000000000000000000000000000000000000000000000000000000
#01652:64640000
#0165a:0054000000000000
#01656:00000000002400000000000000000000
#0165b:0000000000000053
#0565a:14140000
#05652:00001414
#03555:0000161600000000
#03557:23
#0355b:0000004300000000
#03552:00330000
#00158:0053000063000000
#00152:5300000000630000
#00255:63
#00258:53
#00355:0063000053000000
#0035b:6300000000530000
#0375b:0023001300000000
#03758:53430000
#03755:53330000
#03752:0023001300000000
#0365b:0000000000000023
#03658:0000000000005323
#03655:00000053
#0455b:0023001300000000
#04552:0023001300000000
#04555:63330000
#04558:63430000
#04355:0000161600000000
#04356:23
#04352:0000003300000000
#0435b:00430000
#04252:1300000000000053
#04257:0000530000530000
#04256:0000006300000000
#04455:0000000000006323
#04452:0000000000000023
#04458:00000063
#01158:00006464000000000000000000000000
#01156:0000000000280028000000000000000000000000000000000000000000000000
#01154:00000000545400000000000000000000
#01152:0000000000000000002800280000000000000000000000000000000000000000
#04952:54
#0495a:0064000000000000
#04956:0014140000000000
#01556:23
#01552:0053000000000000
#0155b:00630000
#01855:0000000000000053
#01858:0000005300000000
#05355:4600004600000000
#0535b:4300004300000000
#0545b:00130013
#05456:0063000000000000
#05457:6363
#05452:1300000013630000
#05755:3600003600000000
#05752:3300003300000000
#02456:53
#001320:13
#001350:0023000000000000
#001381:0013000000000000
#0013b1:00230000
#001381:0013
#0013b1:0000000000230000
#001320:0000000000130000
#001350:00000023
#002350:13
#002320:0023000000000000
#002381:13
#0023b1:0023000000000000
#0033b1:13
#003381:0023000000000000
#003350:0013000000000000
#003320:00230000
#003350:0013
#003320:0000000000230000
#0033b1:0000000000130000
#003381:00000023
#004351:1300332300000000
#004321:0053000000000000
#004380:13230000
#0043b0:0053000000000000
#005321:13
#005351:0023000000000000
#005321:0013
#005351:0000000000230000
#006371:13230000
#0063b1:0033000000000000
#007321:13230000
#007361:0034000000000000
#0073b1:00001323
#007361:0000000000340000
#008321:1424
#008381:00560000
#009381:1323000000000000
#0093b1:00530000000000000000000000000000
#009350:0013230000000000
#009320:00000053000000000000000000000000
#009360:0000000000000013
#010320:33
#010360:0023000000000000
#010340:00000000000000000000145424000000
#010320:0000000000000000000000000000000000000000005800580000000000000000
#010381:00000000000000000000000014542400
#010361:0000000000000000000000000000000000000000000000000058005800000000
#011381:00001454240000000000000000000000
#011361:0000000000580058000000000000000000000000000000000000000000000000
#011340:00000000145424000000000000000000
#011320:0000000000000000005800580000000000000000000000000000000000000000
#012320:13553356345824000000000000000000
#0123b1:1333000000000000
#012391:00550000000000000000000000000000
#012381:00000056000000000000000000000000
#0123a1:0000342400000000
#012361:000000000000000000000000000000000000000000000000000000000000000000000000000000000000000000000000000000000000000000000000005800000000000000000000000000000000000000000000000000000000000000000000000000000000000000000000000000000000000000000000000000000000000000000000000000000000000000000000000000000000000000000000000000000000000000000000000000000000000000000000000000000000000000000000
#0133b1:1323000000000000
#013381:00530000000000000000000000000000
#013320:0013230000000000
#013350:00000053000000000000000000000000
#013370:0000000000000013
#013390:00000000000000000000000000000033
#0143b0:33
#014370:0023000000000000
#014370:0000000000130000
#0143b0:00000023
#014361:00000013
#014321:0000000000000023
#0143b0:0000000000000013
#015360:53
#0153b0:0023000000000000
#015321:0013000000000000
#015361:00230000
#0153b0:00130000
#015370:0000002300000000
#016320:14
#016360:0024000000000000
#0163a1:0014000000000000
#016361:00240000
#016320:0000142400000000
#016360:00000000005400000000000000000000
#0163b0:0000000000000013
#017380:23
#017380:0000001300000000
#0173b0:0023
#0173b0:0000000000000013
#018380:23
#018380:0000001300000000
#0183b0:0023
#018350:0000000000000013
#019320:23
#019320:0000001300000000
#019350:0023
#019350:0000000000000013
#020320:23
#0213b0:0000001300000000
#021380:0023
#021380:0000000000000013
#0223b0:23
#023350:0000000000130023
#023320:00000033
#024360:13
#024320:00230000
#025360:00120022
#025320:0032
#0253a1:0000122200000000
#025381:00000000005600000000000000000000
#025381:0000000012220000
#025361:00000000000000000056000000000000
#0253a1:0000000000001222
#025381:00000000000000000000000000560000
#0263c1:00122200
#026381:0000005200000000
#026360:0012
#026320:00000022
#027380:00120022
#0273c0:0032
#027341:0000122200000000
#027321:00000000005600000000000000000000
#027361:0000000012220000
#027341:00000000000000000056000000000000
#027341:0000000000001222
#027321:00000000000000000000000000560000
#028361:0000001200320022
#028321:00005232
#028380:0000001200320022
#0283c0:00005232
#029370:00130023
#0293b0:0033
#030360:00130023
#030320:0033
#031380:13
#0313b0:00230000
#0313b0:0013
#031380:00000023
#032350:13
#032320:00230000
#032320:0013
#032350:00000023
#033370:0000000000130033
#0333b0:00000033
#0343b0:23
#034360:00130000
#034320:0000002300000000
#034371:0000001300000000
#0343b1:0023
#034361:0000000000130000
#034321:00000023
#0343b1:0000000000000013
#035371:33
#0353b1:0023000000000000
#035361:0000000000130023
#035321:00000033
#036381:00000013
#0363b1:0000000000000033
#037381:33230000
#0373b1:0053000000000000
#036350:00000013
#036380:0000000000000033
#037350:33230000
#037320:0053000000000000
#038320:1323000000000000
#038350:00530000000000000000000000000000
#0383b1:1323000000000000
#038381:00530000000000000000000000000000
#0383b1:0000001300000000
#038381:00000000000000520000220000000000
#038320:0000001300000000
#038360:00000000000000520000220000000000
#0413a0:14
#041360:0024000000000000
#041321:0014000000000000
#041361:00240000
#042371:00130000
#0423b1:0000002300000000
#042360:0000001300000000
#042320:0023
#042370:0000000000130000
#0423b0:00000023
#042320:0000000000000013
#043360:33
#043320:0023000000000000
#043370:0000000000130023
#0433b0:00000033
#044380:00000013
#044350:0000000000000033
#045380:33230000
#0453b0:0033000000000000
#044351:00000013
#044321:0000000000000033
#045351:33230000
#045321:0033000000000000
#0463b1:1323000000000000
#046381:00530000000000000000000000000000
#046320:1323000000000000
#046350:00530000000000000000000000000000
#046350:0000001300000000
#046320:0023
#046381:0000001300000000
#0463b1:0023
#049321:14
#049361:0024000000000000
#0493a0:0014000000000000
#049360:00240000
#050320:0000000000000016
#050340:00000000000000000000000000000036
#051360:36565600
#051340:00560056005600560056000026000000
#051320:0056005600560000
#051330:00000000000000000000005600000000
#052360:13
#052340:00330000000000000000000000000000
#052320:0023000000000000
#052371:0013000000000000
#052391:00000033000000000000000000000000
#0523b1:00230000
#052361:0013
#052341:00000000000000000033000000000000
#052321:0000000000230000
#0523b0:0000000000130000
#052390:00000000000000000000003300000000
#052370:00000023
#054370:13
#054390:00330000000000000000000000000000
#0543b0:0023000000000000
#054361:0013000000000000
#054341:00000033000000000000000000000000
#054321:00230000
#054371:0013
#054391:00000000000000000033000000000000
#0543b1:0000000000230000
#054320:0000000000130000
#054340:00000000000000000000003300000000
#054360:00000023
#055380:16260000
#055320:0056000000000000
#056360:00142400000000000000000000000000
#056320:00000014240000000000000000000000
#056360:00000000000000000014240000000000
#0563a0:00000000000000000000001424000000
#058320:12280000
#0583c0:0012
#058360:00000028
