This file was generated by Ched 2.7.0.0.
#TITLE ""
#ARTIST ""
#DESIGNER ""
#DIFFICULTY 0
#PLAYLEVEL
#SONGID ""
#WAVE ""
#WAVEOFFSET 0
#JACKET ""
#REQUEST "ticks_per_beat 480"
#00002: 4
#BPM01: 120
#00008: 01
#TIL00: ""
#HISPEED 00
#MEASUREHS 00
#0011a:14
#00114:00140000
#00118:0014
#00112:00000014
#00312:14
#00318:00140000
#00314:0014
#0031a:00000014
#0051a:14
#00514:00140000
#00518:0014
#00512:00000014
#00618:1414
#00612:00140000
#00614:00000014
#0071a:14140000
#00714:00001414
#00818:14
#00912:1414
#00918:00140000
#00910:41
#0101a:1414
#01014:00140000
#01112:1414
#01118:00140014
#0131a:1414
#01314:00140000
#01412:1414
#01418:00140000
#0151a:1414
#01514:00140014
#01712:1414
#01718:00140014
#01710:41
#01814:1414
#0181a:00140014
#02114:1414
#02118:00140014
#02212:1414
#0221a:00140014
#02512:14
#02515:00140000
#0251f:00110000
#02510:41
#0261a:14
#02617:00140000
#02712:14
#02715:00140000
#0281a:14
#02817:00140000
#02914:14141400
#03018:14141400
#03112:14141400
#0321a:14141414
#03418:00140014
#03414:0014
#0341a:24
#03412:24
#0341f:21
#03410:00410000
#03514:14
#03512:00343400
#03614:00140014
#03618:0014
#0361a:14
#03612:14
#03718:14
#0371a:00343400
#03812:14
#03818:00140000
#03814:0014
#0381a:00000014
#03914:14140000
#03918:0014001400000000
#03912:00000014
#0401a:14
#04014:00140000
#04018:0014
#04012:00000014
#0411a:14
#04214:00140000
#04218:0014
#04212:24000014
#0421a:24
#04210:41
#0431a:14343400
#04412:14
#0441a:14000014
#04418:00140000
#04414:0014
#0461a:14
#04614:00140000
#04618:0014
#04612:00000014
#04718:14140000
#04714:0014001400000000
#0471a:00000014
#04812:14
#04818:00140000
#04814:0014
#0481a:00000014
#04912:14
#04512:14343400
#0501a:14
#05014:00140000
#05018:0014
#05012:00000014
#05010:41
#0511a:14
#05314:1414
#05318:00140000
#05518:1414
#05514:00140000
#05714:14
#05718:00140000
#05712:0014
#0571a:00000014
#0591a:14
#05912:14
#0331a:24
#03312:24
#01212:0034340000000000
#0161a:0034340000000000
#0085a:0014
#00858:54
#02552:54
#02555:00240000
#0265a:64
#02657:00240000
#02752:54
#02755:00240000
#0285a:64
#02857:00240000
#03554:54
#03758:64
#0415a:54
#0435a:64
#04952:64
#04552:54
#0515a:54
#0595a:54
#05952:64
#05954:0014
#05958:0014
#0023a0:1424
#004320:1424
#008380:14
#0083a0:0024
#012320:1434340000000000
#012340:0000002400000000
#0163a0:1434340000000000
#016380:0000002400000000
#019320:14
#019340:0024
#0203a0:14
#020380:0024
#023340:14
#023320:0024
#024380:14
#0243a0:0024
#025320:1424
#025350:00540000
#0263a0:1424
#026370:00540000
#027320:1424
#027350:00540000
#0283a0:1424
#028370:00540000
#035340:14
#035320:00343424
#037380:14
#0373a0:00343424
#0413a0:14
#041380:0024
#0433a0:14343400
#043380:00000024
#045320:14343400
#045340:00000024
#049320:14
#049340:0024
#0513a0:14
#051380:00000024
#052320:14240000
#052380:00001424
#0543a0:14240000
#054340:00001424
#056320:14240000
#0563a0:00001424
#058320:14240000
#0583a1:14240000
#058321:00001424
#0583a0:00001424
#0593a0:14
#059380:0024
#059321:14
#059341:0024
