This file was generated by Ched 2.6.4.0.
#TITLE ""
#ARTIST ""
#DESIGNER ""
#DIFFICULTY 0
#PLAYLEVEL
#SONGID ""
#WAVE ""
#WAVEOFFSET 0
#JACKET ""
#REQUEST "ticks_per_beat 480"
#00002: 4
#BPM01: 152
#00008: 01
#TIL00: ""
#HISPEED 00
#MEASUREHS 00
#00213:14
#00119:14
#00413:14
#0141a:14
#01512:14
#01510:41
#01618:14
#02912:14
#0301a:14
#03512:0016
#03518:26
#03510:41
#03618:1616
#03918:0016
#03912:16
#04118:1616
#05012:14
#05112:14
#04918:14
#05218:14
#07312:14
#07514:14
#0741a:14
#07618:14
#00319:14
#0051a:14
#00510:41
#0061a:14
#00714:14
#00814:14
#01314:14
#01712:14
#01812:14
#01918:14
#02018:14
#02512:14
#02510:41
#0261a:14
#02714:14
#02818:14
#03318:14
#03414:14
#04012:1616
#03712:1616
#0471a:14
#0471f:11
#04814:14
#05314:14
#0541a:14
#05912:0016
#05918:16
#0591f:21
#06718:0016
#06712:16
#06518:16
#06512:0016
#06918:16
#06912:0016
#06910:41
#06112:16
#06118:0016
#06312:26
#07218:26
#06212:26
#06218:0026
#06010:41
#009380:14
#010380:24
#011320:14
#012320:24
#021340:14
#022340:24
#0233a0:14
#0243a0:24
#031340:14
#032340:24
#038380:1626
#042320:16362600
#043390:14
#044390:24
#045330:14
#046330:24
#055330:14
#056330:24
#057390:14
#058390:24
#060380:1626
#063320:16
#064320:3626
#066380:1626
#068320:1626
#070380:16362600
#071320:16362600
#072380:16362600
#077320:14
#078320:3400000000000024
