This file was generated by Ched 2.6.4.0.
#TITLE ""
#ARTIST ""
#DESIGNER ""
#DIFFICULTY 0
#PLAYLEVEL
#SONGID ""
#WAVE ""
#WAVEOFFSET 0
#JACKET ""
#REQUEST "ticks_per_beat 480"
#00002: 4
#BPM01: 152
#00008: 01
#TIL00: ""
#HISPEED 00
#MEASUREHS 00
#0011b:0013001300000000
#00112:23130000
#00118:23000000130000000000001300000000
#00215:0000130000130000
#00218:00000000000013000000001300000000
#00212:0013000013001300
#0021b:0013
#00517:00130013000000000000001300000000
#00512:2313130000000013
#0051b:00000000000013000000000000000013
#00516:0013
#00510:41
#00615:1300130000000013
#00618:0013001300130000
#0061b:0013
#00612:0013
#00917:0013000000000000
#0091b:23000000130000000000001300000000
#00915:00000000000000000000130000000013
#00912:0013000013001300
#00918:0000000013000013
#00916:23130000
#01012:0013001300130000
#01016:00131313
#0101b:00000000000000000000001300000000
#0241b:0000000013000013
#02415:00001300000013000000000013000013
#02418:1300130000130000
#02412:0013
#02512:0013
#0251b:0013001300000000
#02518:23131300
#02517:0000000000000013
#02510:41
#0261b:1313
#02616:00131300
#02612:0000001300000000
#02619:0013000000000000
#02614:0013000000000000
#02915:0000000000000013
#02917:13
#02912:0013
#03018:00001300001300000000000000000000
#03015:00130016
#0301b:0000001300130013
#03016:0014
#03012:0000001300130013
#03114:0000000000000013
#03115:13
#03112:0000001300000000
#03119:0000000000000013
#03118:13
#0311b:0000001300000000
#0321b:1300130013000013
#03215:0016001600131300
#03218:00000000000000000000001300000000
#03212:1300130013000013
#0331b:1300001300000013
#03312:0013000013000000
#03318:000000000000130000000000000000130013000000000000
#03315:000000000000000013130000
#03316:13
#03412:13131300
#03417:13131300
#0341b:0013001300000000
#03416:0013001300000000
#03415:00000016
#03516:0013000000000000
#03514:00130000
#03519:00000013000000000000000000000000
#03512:2300001300000000
#03517:0000001300000000
#0351b:23
#03510:41
#0361b:13000000000000130000000000000000
#03615:0013000000000000
#03618:00130000
#03612:0000001300000000
#03617:0000000000000000000000000000000000000013000000000000000000000000
#03616:00000013
#03712:1313
#0371b:00130013
#03717:13
#03817:0013000000000000
#03812:00000013000000001300000000000000
#03819:00130000
#0381b:0000001300000013
#03814:00000000001300000000000000000000
#03815:0000000000130000
#03818:00000013
#04112:00130013
#04118:00000000000000000000000000000013
#0411b:1323
#0411b:13
#04115:0000000000000013
#04116:1323
#04215:13002300000000001300001300000000
#0421b:2313000023002300
#04218:0000231300130000
#04212:0000132300002300
#04212:00000023
#0461b:00001313
#04612:00000000000000000013000000130000
#04618:0000000000130013
#04615:00000000000012000000001300000013
#04619:00120000
#04712:2313131300000000
#0471b:0000000013131313
#0471f:11
#04812:13
#04814:0013000000000000
#04816:00000000130000130000000000000000
#04819:0000001300000000
#0481b:0000130000130013
#04818:00000013
#04817:13
#04918:1300001300001313
#04912:00001300000013000000000000130013
#04915:00000000130000000013001300000000
#0491b:0013000013130000
#0501b:1313
#05014:00000013000000000000000000000000
#05012:0013
#05019:00000013
#05117:1313000000130000
#05112:00140000000000000014000013000000
#05116:0000131300000013
#0511a:00000000001400000000000000140000
#0511b:0013
#05316:1313001300000013
#0531b:1313000000000000
#05312:00130013
#05319:00000000001300000000000000000000
#05317:0013
#05219:1300001300000000
#0521b:00000013000000000000000000000000
#05214:1300001300000000
#05215:0000000000130000
#05218:0000000000130000
#05212:00000013000000000000000000000000
#06117:1300000000130000
#0611b:0013000013000000
#06112:1300000000130000
#06116:0013000023000000
#07717:13
#07715:0000130000001313
#07712:1300000013130000
#07816:00000024000000001200000000000000
#07818:00000000000000000012000000000000
#07812:24
#0781a:0000002400000000
#00014:00000013
#00019:00000013
#00312:0013001300000000
#0031b:13130000
#00315:13000000130000000000001300000000
#00418:0000130000130000
#00415:00000000000013000000001300000000
#0041b:0013000013001300
#00412:0013
#0131b:0013001313000000
#01312:2300130000000013
#01317:23000000130000000000001300001300
#01316:0013
#01412:00131313
#01418:00000000000013000000001300000000
#01415:0013000000130000
#0141b:00001313
#01512:0013001313000000
#0151b:1300130000000013
#01516:13000000130000000000001300001300
#01517:0013
#01510:41
#0161b:00131313
#01615:00000000000013000000001300000000
#01618:0013000000130000
#01612:00001313
#04316:0012000000000000
#04314:00120000
#04318:2200001200000000
#0431c:00120000
#04312:22
#04415:00120000
#04419:0000001200000000
#04413:0012
#04418:00000000000000000000001200000000
#04414:00000012
#04416:0000000000120000
#0441b:0012
#0441a:00000012
#04518:0012000000000000
#0451a:00120000
#04516:1200001200000000
#04512:00120000
#0451c:12
#05718:0000000000130000
#05715:00000000000000000000001300000000
#0571b:00000013
#05712:12000013
#0621b:0013000023000000
#06212:1300000000130000
#06216:0013000023000000
#06217:2300000000130000
#06512:1313
#06516:0013000000130000
#0651b:00130000
#06517:1300001300001300
#0691b:1323
#0691b:13
#06917:0013000000130000
#06912:13132313
#06916:0000001300000000
#06915:0000000000000013
#06918:00000000000000000000000000000013
#06910:41
#07317:23131300
#07316:00001300000013000000001300001300
#0731b:0013001300000013
#07312:23131300
#07412:13131313
#07415:00000000000013000000001300000000
#07418:0000000000131300
#0741b:0013000013000000
#07516:13131300
#07517:00001300000013000000001300001300
#07512:0013001300000013
#0751b:13131300
#0761b:13131313
#07618:00000000000013000000001300000000
#07615:0000000000131300
#07612:0013000013000000
#05814:2313231300000000
#05819:1323132300000000
#00716:00130013000000000000001300000000
#0071b:1313130000000013
#00712:00000000000013000000000000000013
#00717:0013
#00818:13130000
#00815:0013001300000000
#00812:0013
#0081b:0013
#00816:0000000000141400
#0111b:00001300000013000000001300000013
#01112:0000130013000013
#01117:13
#01116:0000001300000000
#01215:13130000
#01218:0013001300000000
#0121b:0013
#01212:0013
#01219:00000013
#01214:00000013
#01717:00130000000000001300001300000000
#01714:0013000000000000
#01719:00000013000000000000000000000000
#01716:0000000000000000130000000000000000000013000000000000000000000000
#0171b:0000001300000013
#01712:2313
#01715:00000000000000000000000000000013
#01818:0013
#01812:0000000000000013
#0181b:0000000000130000
#0201a:00000014
#02012:0000000000140000
#02015:0013
#01916:00130000000000001300001300000000
#01919:0013000000000000
#01914:00000013000000000000000000000000
#01917:0000000000000000130000000000000000000013000000000000000000000000
#01912:0000001300000013
#0191b:1313
#01918:00000000000000000000000000000013
#02118:00000000000000000000130000000013
#0211b:0013000013001300
#02112:23000000130000000000001300000000
#02115:0000000013000013
#02116:0013000000000000
#02117:23130000
#0221b:0013001300130000
#02217:00131313
#02212:00000000000000000000001300000000
#02312:00001300000013000000001300000013
#0231b:0000130013000013
#02316:13
#02317:0000001300000000
#02712:00001300000000000000000000000014
#02716:2300000000000014
#02717:0013000000000000
#0271b:2313
#0281a:14
#02816:00140000
#02814:0000001400000000
#02812:0014
#02818:0014000000000000
#05412:00130013
#05416:0013
#03917:0013000000000000
#03919:00130000
#03914:00000013000000000000000000000000
#0391b:2300001300000000
#03916:0000001300000000
#03912:23
#04012:13000000000000130000000000000000
#04018:0013000000000000
#04015:00130000
#0401b:0000001300000000
#04016:0000000000000000000000000000000000000013000000000000000000000000
#04017:00000013
#05916:0013000000000000
#05914:00130000
#05919:00000013000000000000000000000000
#05912:2300001300000000
#05917:0000001300000000
#0591b:23
#0591f:21
#0601b:23000013
#06012:0000000000000000000000000000000000000013000000000000000000000000
#06016:23000000000023230000000000000000
#06017:00230000
#06010:41
#06316:0014000000140014
#0631a:2400141414001400
#06312:24000014000014000000000000000000
#0641b:13000000000000130000000000000000
#06414:0013000000000000
#06417:0000000000000000130000000000000000000013000000000000000000000000
#06416:13000000000013130000000000000000
#06412:00130013
#06616:0013000000000000
#06619:00000013000000000000000000000000
#06614:00130000
#06612:1300001300000013
#06617:00000000001300000000000000000000
#0661b:0013
#06615:0000000000130000
#06618:00000013
#06812:13000000000000130000000000000000
#06819:0013000000000000
#06816:0000000000000000130000000000000000000013000000000000000000000000
#06817:13000000000013130000000000000000
#0681b:00130013
#06716:0014000000140014
#06712:2400141414001400
#0671a:24000014000014000000000000000000
#05516:12
#05518:0012
#07012:0013231323000000
#07018:0000000000130014
#07015:23000000000000000000001300000000
#0701b:0023132313002300
#07014:00000000000000000000000000000014
#0711a:0014241424000000
#07112:0024142414002416
#07114:0000000000140000
#07118:24000000000000000000001400000016
#07218:0026162616162600
#07212:26001600260016002600001600000000
#05616:12000012
#05618:0012
#00252:00000013
#0045b:00000013
#01452:00000013
#01356:0053
#01357:0000000000000053
#0165b:00000013
#01557:0063
#01556:0000000000000063
#04454:00000012
#03752:5353
#0375b:00630013
#0415b:6363
#0415b:63
#04152:00530000
#04157:00430043
#04156:3333
#06157:5300000000230000
#0615b:0023000063004300
#06152:5300330000230000
#06156:0023000063000000
#0625b:0023000063004300
#06252:5300330000230000
#06256:0023000063004300
#06257:5300330000230000
#06552:5353
#06556:0023000000230000
#0655b:00630000
#06557:0000002300004300
#0695b:63436343
#0695b:63
#06957:0023000000230000
#06952:33533300
#06956:0000002300000000
#07357:0053
#07356:0000000000000053
#07452:23000013
#07458:00000013
#07556:0063
#07557:0000000000000063
#0765b:23000013
#07655:00000013
#00556:0063
#00757:0053
#00856:00000014
#01056:00000063
#01152:0063
#01254:00000013
#01259:00000013
#01752:0063
#01756:0000000000000000000000000000000000000023000000000000000000000000
#0205a:00000014
#0195b:0053
#01957:0000000000000000000000000000000000000023000000000000000000000000
#02257:00000053
#0235b:0053
#02455:00000013
#02458:0000000000130000
#02656:0013
#0265b:0013
#02852:0014
#03152:0000002300000000
#03155:63
#03158:53
#0315b:0000002300000000
#0325b:1313
#03252:00130000
#03356:63
#03352:0023000000000000
#03358:00530000
#0335b:0000002300000000
#04856:00000000000000630000000000000000
#0505b:63
#05052:0053
#05054:00000013000000000000000000000000
#05059:00000013
#05255:0000000000230000
#05252:00000033
#05258:0000000000230000
#0525b:00000043
#05352:00000053
#05356:0000000000000023
#05752:00000033
#0575b:00000043
#07757:53
#03455:00000016
#0365b:00000000000000630000000000000000
#03657:0000000000000000000000000000000000000023000000000000000000000000
#0665b:0043
#06658:00000043
#06652:0000000000000033
#06655:0000000000330000
#04252:00000033
#04252:00000033
#0425b:00000043
#0785a:0000000000000042
#07854:0000000000000032
#06056:63000000000000630000000000000000
#06057:00530000
#06052:0000000000000000000000000000000000000023000000000000000000000000
#00658:0000000000130000
#00655:0000000000000013
#0185b:0000000000130000
#01852:0000000000000013
#02558:0013
#02552:0013
#0275b:0013
#04052:00000000000000530000000000000000
#04056:0000000000000000000000000000000000000023000000000000000000000000
#0645b:00000000000000630000000000000000
#06457:0000000000000000000000000000000000000023000000000000000000000000
#06852:00000000000000530000000000000000
#06856:0000000000000000000000000000000000000023000000000000000000000000
#0355b:13
#05556:62
#05558:0052
#03952:13
#0595b:13
#06352:14
#0675a:14
#0705b:00000043
#07152:00000034
#07258:00000046
#05656:62
#05658:0052
#001350:00000000000000001300002300000000
#0013b0:0000000000000013
#0023b0:0023000000000000
#003380:00000000000000001300002300000000
#003320:0000000000000013
#004320:0023000000000000
#005360:0013
#005320:00000000000000000000002300000000
#007370:0013
#0073b0:00000000000000000000002300000000
#0103b0:13332300
#010370:0033003300000000
#010360:00000013
#011320:23
#011320:0013
#011360:00000000000000000000002300000000
#013360:0013
#013320:00000000000000000000002300000000
#013370:0000000000000013
#0143b0:0023000000000000
#015370:0013
#0153b0:00000000000000000000002300000000
#015360:0000000000000013
#016320:0023000000000000
#017320:00000000000000001300002300000000
#017360:0000000000000000000000000000000000000053000000000000000000000000
#018380:1323000000000000
#018351:0013230000000000
#0183b0:0000132300000000
#018321:0000001323000000
#0193b1:00000000000000001300002300000000
#019371:0000000000000000000000000000000000000053000000000000000000000000
#020351:1323000000000000
#020380:0013230000000000
#020321:0000132300000000
#0203b0:0000001323000000
#022320:13332300
#022360:0033003300000000
#022370:00000013
#0233b0:23
#0233b0:0013
#023370:00000000000000000000002300000000
#025320:1323000000000000
#025350:0000132300000000
#025320:0000000000000013
#025340:00000000000000000000000000000033
#026360:23
#0263b0:00130000
#026390:00000000003300000000000000000000
#026370:0000002300000000
#0273b0:00000000132300000000000000000000
#027351:00000000001323000000000000000000
#027380:00000000000013230000000000000000
#027321:00000000000000132300000000000000
#029321:13
#029331:00330000000000000000000000000000
#029341:0033000000000000
#029351:00000033000000000000000000000000
#029361:00230000
#0293b0:00130000
#0293a0:00000000003300000000000000000000
#029390:0000003300000000
#029380:00000000000000330000000000000000
#029370:0023
#029380:0000000000000013
#030380:23
#030351:1323000000000000
#031351:13000023
#031321:0000005300000000
#031380:13000023
#0313b0:0000005300000000
#033360:13
#033320:0053000000000000
#033350:00230000
#033381:00130000
#0333b1:0000005300000000
#033371:0023
#0353b1:0000000013230000
#035360:0000000013230000
#035320:0000000000001323
#035371:0000000000001323
#0363b1:00000000000000130000000023000000
#036371:0000000000000000000000000000000000000053000000000000000000000000
#037321:13
#037361:00230000
#0373b0:00130000
#037370:0023
#037321:0013
#037361:00000023
#038321:1323000000000000
#038381:0000000013230000
#038351:0000000000001323
#039321:0000000013230000
#039370:0000000013230000
#0393b0:0000000000001323
#039361:0000000000001323
#040321:00000000000000130000000023000000
#040361:0000000000000000000000000000000000000053000000000000000000000000
#0413b1:13
#041371:00230000
#041320:00130000
#041360:0023
#0413b1:0013
#041371:00000023
#043361:00000000000000001200002200000000
#0433c1:0000000000000012
#0443c1:0022000000000000
#045381:00000000000000001200002200000000
#045321:0000000000000012
#046321:0022000000000000
#0473b1:13330000
#047371:0033002300000000
#047321:00001333
#047361:0000000000330023
#048361:00000000000000130000000000000000
#049321:23
#0503b1:13
#050371:00000023000000000000000000000000
#050321:0013
#050361:00000023
#052351:0000000013330000
#052321:00000023
#052380:0000000013330000
#0523b0:00000023
#053320:0013
#053360:0000000000230000
#0533b1:0000000000130000
#053371:00000023
#053320:00000013
#053360:0000000000000053
#054320:23
#0543b1:13535353535353535353535353535353
#0543a1:0053005300530053005300530053005300530053005300530053005300530053
#0553b1:23
#055360:12
#055340:0022
#055381:0012
#0563a1:22
#056360:12
#056320:0022
#056381:0012
#0573c1:22
#058321:00001333
#058351:0000000000330023
#0583b0:00001333
#058380:0000000000330023
#0593b0:0013
#059370:0000000000230000
#059361:0013
#059321:0000000000230000
#059321:00000013
#059361:0000000000000023
#059370:00000013
#0593b0:0000000000000023
#060360:13
#060320:00230000
#060371:00130000
#0603b1:0000002300000000
#060361:00000000000000130000000023000000
#060321:0000000000000000000000000000000000000053000000000000000000000000
#061371:13230000
#0613b1:0053000000000000
#061320:13230000
#061360:0053000000000000
#061360:00001323
#061320:0000000000530000
#0613b1:00001323
#061371:0000000000530000
#062371:13230000
#0623b1:0053000000000000
#062320:13230000
#062360:0053000000000000
#062360:00001323
#062320:0000000000530000
#0623b1:00001323
#062371:0000000000530000
#063361:0014
#063321:0000000000240000
#063361:00000014
#063321:0000000000000024
#0643b1:00000000000000130000000023000000
#064371:0000000000000000000000000000000000000053000000000000000000000000
#065321:13230000
#065361:0053000000000000
#0653b0:00132300
#065370:0000005300000000
#065321:00001323
#065361:0000000000530000
#066371:13
#0663b1:0023000000000000
#067361:0014
#0673a1:0000000000240000
#067361:00000014
#0673a1:0000000000000024
#068321:00000000000000130000000023000000
#068361:0000000000000000000000000000000000000053000000000000000000000000
#0693b1:13230000
#069371:0053000000000000
#069320:00132300
#069360:0000005300000000
#0693b1:00001323
#069371:0000000000530000
#073371:0013
#0733b1:00000000000000000000002300000000
#073361:0000000000000013
#074321:53
#074361:0023000000000000
#074381:0000132300000000
#075361:0013
#075321:00000000000000000000002300000000
#075371:0000000000000013
#0763b1:53
#076371:0023000000000000
#076351:0000132300000000
#077371:13
#0783b1:23
#078341:0000000000120022
#078361:00000032
#0783a0:0000000000120022
#078380:00000032
