This file was generated by Ched 2.6.4.0.
#TITLE ""
#ARTIST ""
#DESIGNER ""
#DIFFICULTY 0
#PLAYLEVEL
#SONGID ""
#WAVE ""
#WAVEOFFSET 0
#JACKET ""
#REQUEST "ticks_per_beat 480"
#00002: 4
#BPM01: 152
#00008: 01
#TIL00: ""
#HISPEED 00
#MEASUREHS 00
#00118:0013001300000000
#00112:23130000
#00215:00130000
#00218:0000001300000000
#00518:0013000000000000
#00515:00130000
#0051b:0000001300000013
#00512:2313
#00510:41
#00615:1313
#00618:0013000000000000
#00612:00130000
#0061b:0000001300000000
#00918:0000000000130000
#00912:2413
#00915:00000013
#0091b:0000000000000013
#00916:0014000000000000
#0091a:00140000
#01018:0000130000130000
#01015:0013000013000000
#01012:13000013
#0101b:0000001300000000
#02418:1300130000000013
#02412:0013000000000000
#02415:0000001300000000
#0241b:0013
#02515:0013001300000013
#02518:00130000
#0251b:2313
#02512:2313
#02510:41
#0261b:1313
#02612:1313
#02618:0013001300000000
#02615:00130000
#03012:1313
#03015:0000130000130000
#03018:0000001300001300
#0301b:0013000000000013
#03212:16161600
#03218:0016001600001300
#03215:0000000000000013
#0321b:0000000000130000
#03515:0013001300000000
#03518:00130000
#0351b:2300001300000000
#03512:23
#03510:41
#03612:13
#0361b:0013000000000000
#03615:00000000130000130000000000000000
#03618:0000001300000000
#0371b:1313
#03717:0013000000130000
#04715:0013000000130000
#04718:00130013
#04712:0000001300000013
#0471b:0013
#0471f:11
#05312:1313000013000000
#0531b:1313000000130000
#05315:00130013
#05318:0000001300000000
#0771b:00130000
#07715:00001212
#07719:0000000000120012
#07712:13
#07819:00001212
#07815:0000000000120012
#07812:2600002600000000
#07818:00000026000000000000000000000000
#0711a:0000000000000014
#07115:00000023
#07118:2300002300000000
#07112:0023000000000000
#0711b:00230000
#0031b:13130000
#00315:0013001300000000
#04318:0012001200000000
#04312:22120000
#04414:00121200
#04418:0000001200000000
#0441a:00000012
#04412:00000012
#0451c:12120000
#04516:0012001200000000
#0571a:00000013
#05713:00000013
#05719:13
#05714:13
#02015:00130013
#02012:0013000000000000
#02018:1300001300000000
#0201b:0013
#02712:0013000000000000
#02716:0000000000000014
#02718:0013000000000000
#02715:23
#0271b:23
#02713:00000000000033330000000000000000
#02714:00000000003300000000000000000000
#02719:00000000000033330000000000000000
#0271a:00000000003300000000000000000000
#02812:1414
#0281a:00141400
#02816:0014001400000000
#03112:13
#03115:0000001300000000
#0311b:13
#03118:0000001300000000
#04115:0000000023000013
#04112:13
#04118:00130000
#0411b:00000023
#05518:0013
#05612:0013
#05615:13
#03416:00000014
#03412:16161600
#03418:0016001600000000
#05918:0013000013000000
#05912:0000130013000013
#0591b:2300001300001300
#05915:2300000000130000
#0591f:21
#06316:0014001400000000
#06312:24140000
#0631a:24
#0641b:13000000000000130000000000000000
#06412:0013000000000000
#06418:00130000
#06415:0000001300000000
#00012:00000014
#0001a:00000014
#00418:00130000
#00415:0000001300000000
#00715:0013000000000000
#00718:00130000
#00712:0000001300000013
#0071b:1313
#00818:1313
#00815:0013000000000000
#0081b:00130013
#00812:0000001300000000
#01115:0013000000000013
#01118:00000000130000000000000000000013
#01112:0000001300000000
#0111b:1313
#0121b:0013000000001300
#01215:13130000
#01218:0000001300000000
#01212:0013
#01318:0013001300000013
#01315:00130000
#01312:23
#0131b:23
#01415:00130000
#01418:0000001300000000
#01412:0013
#01515:0013001300000013
#01518:00130000
#01512:13
#0151b:13
#01510:41
#01618:00130000
#01615:0000001300000000
#0161b:0013
#03312:1313
#03318:1313
#03315:00130000
#0331b:00130000
#02115:0000000000130000
#0211b:0013
#02118:00000013
#02112:0000140000000013
#02116:0014000000000000
#0211a:24
#03918:0013001300000000
#03915:00130000
#03912:2300001300000000
#0391b:23
#0401b:13
#04012:0013000000000000
#04018:00000000130000130000000000000000
#04015:0000001300000000
#04218:2300000000130000
#0421b:00231323
#04215:0000002300130000
#04212:0023000013002300
#0461a:00000000120000000033000000000033
#04616:0000001200000000
#0461b:0013
#04617:00000013
#04618:00000000000000000000003300330000
#04619:0000000000330033
#05419:1414141414141414
#05418:00140000001400000014000000140000
#0541a:00000014000000140000001400000014
#06716:0014001400000000
#0671a:24140000
#06712:24
#06812:13000000000000130000000000000000
#0681b:0013000000000000
#06815:00130000
#06818:0000001300000000
#06512:1313
#06516:0013000000130000
#06918:0000000023000013
#0691b:13
#06915:00130000
#06912:00000023
#06910:41
#07015:2300002300000013
#07018:00000023
#0701b:0023000000000000
#07012:00230000
#07214:2400000000140000
#07218:0024000000140000
#07212:00242400
#07216:0000002400000000
#0721a:0024
#07318:0013000000000000
#07315:00130000
#0731b:2300001300000013
#07312:2313
#07412:00130000
#07418:0000001300000000
#07415:00001313
#0741b:0000000000130000
#07512:1300001300000013
#07515:0013000000000000
#07518:00130000
#0751b:1313
#05215:0013
#05218:0000000000130000
#0521b:00000013
#05212:00000013
#0511b:1313000013130000
#05115:00130000000000000013000000000000
#05112:0000131300001313
#05118:00000000001300000000000000130000
#02215:0000130000130000
#02218:0013000013000000
#0221b:13000013
#02212:0000001300000000
#02318:0013000000000013
#02315:00000000130000000000000000000013
#0231b:0000001300000000
#02312:1313
#06112:13
#06115:0013000000000000
#0611b:0013
#06118:0000000000130000
#06212:13230000
#06215:0013000000000000
#06218:0000000000130000
#0621b:0023
#03818:13130013
#03815:0013001300000013
#03812:0000000000130000
#0381b:0013
#06615:13130013
#06618:0013001300000013
#0661b:1300000000130000
#06612:0013
#01718:0013000000000013
#01715:00131300
#0171b:2300001300000000
#01712:23
#01915:0013000000000013
#01918:00131300
#01912:1300001300000000
#0191b:13
#0181b:0013000000000000
#01818:00130000
#01815:1300001300000000
#01812:0013
#06018:0000000000000000000000000000000000000014000000000000000000000000
#06014:0000000000000000000000000000000000000014000000000000000000000000
#0601a:24000000000000240000000000000000
#06016:00240000
#06012:00000000000000240000000000000000
#06010:41
#02918:0000000000000013
#04815:00000000130000130000000000000000
#04818:0013001300000000
#0481b:13
#04813:0000000000333300
#0501b:0013
#05014:00000014
#05018:00000014000000000000000000000000
#04916:00000013
#04912:0000001313000000
#0491b:13
#04915:00001300000000000000003300330000
#04918:00130000
#04913:00000000000000000033000000000033
#04914:0000000000330033
#0761b:00130000
#07615:0000001300000000
#07618:00001313
#07612:0000000000130000
#05818:26260000
#05812:0026002600000000
#0375b:63006343
#03757:0023000000230000
#00552:0063
#02055:00000013
#02652:0013
#0265b:0013
#02852:0014
#0285a:0014
#03155:0000002300000000
#03152:53
#0315b:63
#03158:0000002300000000
#03456:00000014
#03655:00000000000000630000000000000000
#0425b:00006343
#04258:0000000000230000
#04255:0000000000230000
#04252:00005333
#0115b:0053
#0085b:00000013
#0125b:00000013
#01452:0053
#01455:00000013
#01555:0000000000000063
#04058:00000000000000530000000000000000
#04152:13
#04158:00130000
#0415b:00000013
#04155:0013
#04657:00000023
#0465b:0053
#05459:5454545454545454
#05458:00240000002400000024000000240000
#0545a:00000024000000240000002400000024
#0645b:00000000000000630000000000000000
#06852:00000000000000530000000000000000
#06552:53005333
#06556:0023000000230000
#0695b:13
#06955:00130000
#06958:0013
#06952:00000013
#07254:0000000000240000
#07252:00005434
#07258:0000000000240000
#0725a:00006444
#07552:0000000000000053
#0755b:0063
#07352:0053
#0735b:0000000000000063
#05252:00000013
#0525b:00000013
#05753:00000013
#0575a:00000013
#07155:00000013
#07058:00000013
#02352:0063
#06152:53330000
#06155:0023000000000000
#0615b:00006343
#06158:0000000000230000
#06252:53330000
#06255:0023000000000000
#06258:0000000000230000
#0625b:00006343
#0075b:0053
#01755:0053
#01958:0063
#0605a:00000000000000640000000000000000
#06058:0000000000000000000000000000000000000024000000000000000000000000
#06054:0000000000000000000000000000000000000024000000000000000000000000
#06052:00000000000000540000000000000000
#00252:00000013
#0045b:00000013
#01358:0000000000000053
#0165b:0063
#01658:00000013
#03358:0053
#03352:0053
#04855:00000000000000630000000000000000
#05054:00000014
#05058:00000014000000000000000000000000
#04956:00000023
#04952:0063
#07455:00000013
#07658:00000013
#07855:0000000000000012
#001350:00000000000000001300002300000000
#0013b0:0000000000000013
#0023b0:0023000000000000
#002320:00001323
#003380:00000000000000001300002300000000
#003320:0000000000000013
#004320:0023000000000000
#0043b0:00001323
#005320:0013
#005350:00000000000000000000002300000000
#0073b0:0013
#007380:00000000000000000000002300000000
#0113b0:0013
#011380:00000000000000000000002300000000
#013320:00000000000000001300002300000000
#013380:0000000000000013
#0143b0:0023000000000000
#014320:0013
#014350:00000023
#0153b0:00000000000000001300002300000000
#015350:0000000000000013
#016320:0023000000000000
#0163b0:0013
#016380:00000023
#017350:0013
#017320:00000000000000000000002300000000
#019380:0013
#0193b0:00000000000000000000002300000000
#023320:0013
#023350:00000000000000000000002300000000
#027350:00130000
#027340:00000000003300000000000000000000
#027330:00000000000033330000000000000000
#027320:0023
#0273b1:00130000
#0273a1:00000000003300000000000000000000
#027391:00000000000033330000000000000000
#027381:0023
#029321:1323
#029331:00330000000000330000000000000000
#029341:0033003300000000
#029351:00000033003300000000000000000000
#029361:00330000
#029370:1323
#029380:00330000000000330000000000000000
#029390:0033003300000000
#0293a0:00000033003300000000000000000000
#0293b0:00330000
#031320:13000023
#031350:0000005300000000
#0313b1:13000023
#031381:0000005300000000
#033321:0013
#033351:00000023
#033380:0013
#0333b0:00000023
#035320:0013
#035350:0000000000230000
#0353b0:00000013
#035380:0000000000000023
#036350:00000000000000130000000000000000
#036320:00000023
#0373b0:13333323
#037370:0053000000530000
#0393b0:0013
#039380:0000000000230000
#039320:00000013
#039350:0000000000000023
#040380:00000000000000130000000000000000
#0403b0:00000023
#0423b0:00001323
#042380:0000000000330000
#042321:00001323
#042351:0000000000330000
#043341:00000000000000001200002200000000
#0433a1:0000000000000012
#0443a1:0022000000000000
#0453a1:00000000000000001200002200000000
#045341:0000000000000012
#046341:0022000000000000
#0463b1:0013
#0463a1:00000000000000000033000000000033
#046391:0000000000330033
#046381:00000000000000000000003300330000
#046371:00000033
#0473b1:23
#048351:00000000000000130000000000000000
#048331:0000000000333300
#048321:0000000000000023
#049321:0013
#049331:00000000000000000033000000000033
#049341:0000000000330033
#049351:00000000000000000000003300330000
#049361:00000033
#050321:23
#0523b1:1300002300000000
#052381:00000033000000000000000000000000
#054391:1454545454545454
#054381:00540000005400000054000000540000
#0543a1:00000054000000540000005400000054
#055391:24
#0583b1:0013
#058381:0000000000230000
#058321:00000013
#058351:0000000000000023
#0603a1:00000000000000140000000024000000
#060381:0000000000000000000000000000000000000054000000000000000000000000
#060320:00000000000000140000000024000000
#060340:0000000000000000000000000000000000000054000000000000000000000000
#061320:13230000
#061350:0053000000000000
#0613b0:00001323
#061380:0000000000530000
#062320:13230000
#062350:0053000000000000
#0623b0:00001323
#062380:0000000000530000
#0633a0:0014
#063360:0000000000240000
#063320:00000014
#063360:0000000000000024
#0643b0:00000000000000130000000000000000
#064380:00000023
#065320:13333323
#065360:0053000000530000
#067320:0014
#067360:0000000000240000
#0673a0:00000014
#067360:0000000000000024
#068320:00000000000000130000000000000000
#068350:00000023
#070380:00001323
#071350:00001323
#072320:00001424
#072340:0000000000340000
#0723a1:00001424
#072381:0000000000340000
#073321:0013
#073351:00000000000000000000002300000000
#0733b1:0000000000000013
#074371:0023000000000000
#0753b1:0013
#075381:00000000000000000000002300000000
#075321:0000000000000013
#076361:0023000000000000
