This file was generated by Ched 2.6.4.0.
#TITLE ""
#ARTIST ""
#DESIGNER ""
#DIFFICULTY 0
#PLAYLEVEL
#SONGID ""
#WAVE ""
#WAVEOFFSET 0
#JACKET ""
#REQUEST "ticks_per_beat 480"
#00002: 4
#BPM01: 152
#00008: 01
#TIL00: ""
#HISPEED 00
#MEASUREHS 00
#0051b:0000130000001300000000001300000000000013000000000000000000000000
#00516:00001300000000000000000000000014
#00512:23000000130000001300001300001400
#00517:00131300
#00510:41
#00915:00000000000000000000130000000013
#00912:0018000013000000
#00918:00000000000000000000001300001300
#00916:28180000
#0091b:00000013
#01012:13130013
#01014:0013001300000000
#0101b:00001313
#01018:00000000000000000013001300000000
#01015:0000000000130000
#02418:0000000000000013
#02413:00000000000000000000000000000013
#02412:0014000013140000
#02416:0000001400000000
#0241a:00140014
#0241b:0013
#02417:0000000000140000
#02415:00000014
#02516:23131300
#02512:0013001300130000
#02518:0000000000001316
#02515:00000000000000000000001300000016
#02510:41
#02912:1300130013160000
#02918:00130013000013000000001300000000
#02915:00001300001300130000000016000000
#0291b:13131300
#03112:1400140014000014
#0311a:1400140014000014
#03116:000000000000000000000000000000000000000000000000000000000000000000000000000000000000000000000000000000000000000000000000000000000000000000000000000000000000000000000000000000000000000000000000000000000000000000000000000000000000000000000000000000000000000000000000000000000000000000000000000000000000000000000000000000000000000000000000000000000000000000000000000000000000000000000000000000000000000000000000000000000000000000000000000000000000000000000000000000000000000000000000141400000000000000000000000000000000000000000000000000000000000000000000000000000000000000000000000000000000000000000000000000000000000000000000000000000000000000000000000000000000000000000000000000000000000000000000000000000000000000000000000000000000000000000000000000000000000000000000000000000000000000000000000000000000000000000000000000000000000000000000000000000000000000000000000000000000000000000000000000000000000000000000000000000000000000000000000000000000000000000000000000000000000000000000000000000000000000000000000000000000000000000000000000000000000000000000000000000000000000000000000000000000000000000000000000000000000000000000000000000000000000000000000000000000000000000000000000000000000000000000000000000000000000000000000000000000000000000000000000000000000000000000000000000000000000000000000000000000000000000000000000000000000000000000000000000000000000000000000000000000000000000000000000000000000000000000000000000000000000000000141400000000000000000000000000000000000000000000000000000000000000000000000000000000000000000000000000000000000000000000000000000000000000000000000000000000000000000000000000000000000000000000000000000000000000000000000000000000000000000000000000000000000000000000000000000000000000000000000000000000000000000000000000000000000000000000000000000000000000000000000000000000000000000000000000000000000000000000000000000000000000000000000000000000000000000000000000000000000000000000000000000000000000000000000000000000000000000000000000000000000000000000000000000000000000000000000000000000000000000000000000000000000000000000000000000000000000000000000000000000000000000000000000000000000000000000000000000000000000000000000000000000000000000000000000000000000000000000000000000000000000000000000000000000000000000000000000000000000000000000000000000000000000000000000000000000000000000000000000000000000000000000000000000000000000000000000000000000000000000000141400000000000000000000000000000000000000000000000000000000000000000000000000000000000000000000000000000000000000000000000000000000000000000000000000000000000000000000000000000000000000000000000000000000000000000000000000000000000000000000000000000000000000000000000000000000000000000000000000000000000000000000000000000000000000000000000000000000000000000000000000000000000000000000000000000000000000000000000000000000000000000000000000000000000000000000000000000000000000000000000000000000000000000000000000000000000000000000000000000000000000000000000000000000000000000000000000000000000000000000000000000000000000000000000000000000000000000000000000000000000000000000000000000000000000000000000000000000000000000000000000000000000000000000000000000000000000000000000000000000000000000000000000000000000000000000000000000000000000000000000000000000000000000000000000000000000000000000000000000000000000000000000000000000000000000000000000000000000000000000000000000000000000000000000000000000000000000000000000000000000000000000000000000000000000000000000000000000000000000000000000000000000000000000000000000000000000000000000000000000000000000000000000000000000000000000000000000000000000000000000000000000000000000000000000000000000000000000000000000000000000000000000000000000000000000000000000000000000000000000000000000000000000000000000000000000000000000000000000000000000000000000000000000000000000000000000000000000000000000000
#0321b:1300000013000013
#03218:00001300001300130000001300000000
#03215:00130013000013000000130013000000
#03212:0000130013000013
#0331b:0013130000130013
#03315:160000160000160013000000
#03318:000000000000000000000000000000000013000000000000
#03312:1300001313000000
#0351b:00130000
#03512:2400131300000013
#03518:00000013000000000000000000000000
#03517:0000001313000000
#0351a:24
#03510:41
#0361b:1300000000000000130000000000000000000013000000000000000000000000
#03618:0013000000000000
#03612:00000013000013130000000013000000
#03615:00130000000000000000000000000000
#03616:0000000000130013
#03617:00000000000000130000000000000000
#03712:1313
#03716:0013001300130000
#03717:13130013
#0371b:0013001300130000
#04118:00000000000000000000000000000013
#04112:0013001300130013
#0411b:1323
#04117:0013001300130000
#04116:13132313
#04216:13000000130000001300141400000000
#04217:0013001300000000
#04212:0023002300002400
#0421a:00000024
#0421b:23232300
#04618:0000000016131613
#04612:00000000000000000016000000160000
#04615:00000000000000000000001300000013
#04616:00120000
#0461c:12120000
#04614:0000001200000000
#04716:0013001300000000
#04712:23130000
#04717:0000000000130013
#0471b:00001313
#0471f:11
#04812:1300131300000000
#04817:0000001300000000
#04816:0013000000000000
#0491b:13001313
#04916:13
#04917:00130000
#04915:00000000000000000013000000130000
#04918:0000000000130013
#04912:00000000130000000000001300000013
#04919:0013000000000000
#04914:0000001300000000
#05016:1300000000130000
#05012:0000001300000000000000000000000013000000000000000000000000000000
#0501b:1300000000130000
#05017:0000001300000000000000000000000013000000000000000000000000000000
#0531b:0000130000131300
#05315:00000000001300000000130000130000
#05318:00000000000013000013000000001300
#05312:0000001313000013
#0701b:0013001300130000
#07015:00002300000023000000001300000000
#07016:00000000000000000000000000001414
#07012:13131323
#07018:23232323
#07716:13
#07718:0000120000120012
#0771c:12001212
#07712:0013
#0711a:24141424
#07112:2414001400142400
#07116:00002400240024002400001400000000
#07115:00000000000000000000000000001616
#0031b:1300130000000013
#00317:13131300
#00312:0013001313000000
#00316:00000000000000000000001300001300
#0431c:0012001200000012
#04318:22121200
#04312:22121212
#04418:00120012
#0441a:0000001200120000
#04412:12121212
#04414:00000000000000000000001200000000
#0441c:0012
#05716:00000000000000000000141400000000
#0571a:00000014
#05712:00000014
#05717:12
#07316:2313131313000013
#07312:23131300
#0731b:0013001300000013
#07417:13130000
#07412:13000000000013001400001400000000
#0741a:0000000014141400
#07416:00000000000013000014000014000000
#0741b:00130000
#00612:0000000000001313
#0061b:0000000013130000
#00616:00001400000014000013000000000000
#00617:00000000000000000000000000130000
#0061a:00140000
#01117:0000000013000000130000001300000000000013000000000000000000000000
#0111b:13131300
#01112:00001300000013000000001300001400
#01116:00000000000000001300000000000014
#02612:0013160000130000
#0261b:0013000013001300
#02615:16000000001616000000000000000000
#02616:0000000013141400
#0271b:0013000000130000
#02718:00000000000000000000001300001300
#02713:00000000000000000000000000000013
#02717:2313000000000000
#02712:23141400
#02716:00000000001400140000000000000000
#0271a:0000001400000000
#02715:00000013
#05412:00130000
#05415:13
#0541b:13
#05419:0013000000000000
#05417:00130000
#05414:0000001300000000
#06616:00001400001400000000000000000000
#0661a:00000014000014000000000000000000
#06612:1300141400000013
#0661b:1313
#06618:0000000000131313
#06615:0000000013131300
#00012:00000014
#0001a:00000014
#00416:00130000
#00412:0000001300001300
#00415:00000000000000000013001300000000
#0041b:0013000013001300
#00418:0000000000130000
#00417:0000001300000000
#00712:0000130000001300000000001300000000000013000000000000000000000000
#00717:0013000000000000
#0071b:13000000130000001300001300000000
#00716:00000000130000001300000000000014
#0071a:0000000000000014
#01218:0013
#01215:0013
#01212:0014000000000000
#0121a:0000001400000000
#01216:00140000
#0021b:0000001300001300
#00216:0000001300000000
#00212:0013000013001300
#00215:0000000000130000
#00218:00000000000000000013001300000000
#00217:00130000
#00117:00000000000000000000001300001300
#00112:2300130000000013
#00116:23131300
#0011b:0013001313000000
#0141b:13000000000013000013000013000000
#01416:0000001300000000
#01412:0013000013000000
#01415:0000000000131300
#01418:00000000000000001300001300000000
#01414:00130000
#01417:13
#01419:00130000
#01317:00000000000000000000001300001300
#01312:2300130000000013
#01316:2313131313000000
#0131b:0013001313000000
#01612:13000000000013000013000013000000
#01617:0000001300000000
#0161b:0013000013000000
#01618:0000000000131300
#01615:00000000000000001300001300000000
#01619:00130000
#01616:13
#01614:00130000
#01516:00000000000000000000001300001300
#0151b:1300130000000013
#01517:1313131313000000
#01512:0013001313000000
#01510:41
#0281b:1313
#02816:1313
#02819:0013000000000000
#02817:00130000
#02812:00130000
#02814:0000001300000000
#03012:0000000013131414
#0301b:0000000013130000
#0301a:0000000000001414
#03018:00160000
#03015:00000000001316000000000000000000
#03412:1c131c001c000000
#03417:0013000000000000
#03416:0000001300000000
#0341b:0000001300000000
#03912:24130000
#0391b:0000131300000013
#03915:00000013000000000000000000000000
#03916:0000001313000000
#0391a:24
#04012:1300000000000000130000000000000000000013000000000000000000000000
#04015:0013000000000000
#04016:00000000000000130000000000000000
#0401b:00000013000013130000000013000000
#04018:00130000000000000000000000000000
#04017:0000000000130013
#04512:0012001200000012
#04516:12121200
#0451c:12121212
#05116:1414141414141414
#0511a:00130000000000000014000000000000
#05113:00000000001300000000000000000000
#05112:00000000000000000000000000140000
#05212:1300001300000000
#05217:1300001300000000
#0521b:00000013000000000000000000000000
#05216:00000013000000001300000000000000
#05518:00121200
#05516:12000012
#0551a:0012001200000000
#05514:0000000000120012
#0551c:22
#05612:12000013
#0561a:0012000000000000
#05614:00120000
#05618:0000001200130000
#0561b:00000013
#05615:00000000000000000000001300000000
#05616:00000000000000120000000000000000
#06312:2400001314000000
#06317:00000000000013000013000000000000
#0631b:00130000
#06314:0000000000131400
#06318:24000000000000000000001400000000
#06319:00000000000000000000000000130000
#06316:0000000000000013
#0631a:00000000000000000000000000000014
#0651b:1300001300000000
#06512:0013000000130000
#06516:13130013
#06517:0013
#0671b:0000001300000000
#06716:00000000000013000013000000000000
#06712:00000000130000000000000000000014
#0671a:2414
#06719:0000000000130000
#06714:24000000000000000000001400130000
#06718:00000014
#06717:0000000000000013
#06915:00000000000000000000000000000013
#0691b:0013001300130013
#06912:1323
#06916:0013001300130000
#06917:13132313
#06910:41
#06812:00000013000013130000000013000000
#06812:00000000000000130000000000000000
#06815:00130000000000000000130000000000
#06817:00000000000000130000000000000000
#0681b:1300000000000000130000000000000000000013000000000000000000000000
#06816:0000000000000013
#06818:0013000000000000
#07212:16261626
#07218:26162626
#07214:00002800000028000000181800000000
#07517:1313131313000013
#0751b:13131300
#07512:0013001300000013
#07616:13000000130000000014000014000000
#0761b:1300001300000000
#0761a:00000000000000001400001400000000
#07612:0000130014141400
#07617:0000001300000000
#07814:00000023000000001818000000000000
#0781b:23
#07812:0000002300003300
#07819:00000023000000000000000000000000
#07817:0000002300000000
#0171b:00130013000013000000001300000000
#01715:0013000000000000
#01712:2300130013000014
#01717:23131300
#01716:0000000000000000000000001300000000000013000000000000000000001400
#0181b:0000000013130000
#01817:00000000000000000013000000000000
#01812:0014000000001313
#01816:00000000000014000000000000130000
#0181a:00140000
#01814:0000000000130000
#01819:0000000000000013
#01912:00130013000013000000001300000000
#01918:0013000000000000
#0191b:13131300
#01916:13000000130000001300000000000014
#0191a:0000000000000014
#01917:0000000000000000000000001300000000000013000000000000000000000000
#0201a:0014000014000000
#02016:00000000000014000014140018000000
#02012:00000000140000000000001400000000
#00812:00141418
#00816:00001400000014000014140000000000
#0081a:00000000000000000000001400000000
#02118:00000000000000000000130000000013
#0211b:0013
#02115:00000000000000000000001300001300
#02116:0018000000000000
#02112:28180013
#0221b:13130013
#02219:0013001300000000
#02212:00001313
#02215:00000000000000000013001300000000
#02218:0000000000130000
#02316:0000000013000000130000001300000000000013000000000000000000001400
#02312:1300130013000014
#0231b:00001300000013000000001300000000
#02317:0013
#0611b:13130000
#06117:0013001300001300
#06112:13002313
#06116:0000130000130013
#06217:0013000000000000
#06216:000000000000000000000000000000000000000000000000000000000000000000000000000000000000000000000000000000000000000000000000000000000000000000000000000000000000000000000000000000000000000000000000000000000000000000000000000000000000000000000000000000000000000000000000000000000000000000000000000000000000000000000000000000000000000000000000000000000000000000000000000000000000000000000000000000000000000000000000000000000000000000000000000000000000000000000000000000000000000000000000000000000000000000000000000000000000000000000000000000000000000000000000000000000000000000000000000000000000000000000000000000000000000000000000000000000000000000000000000000000000000000000000000000000000000000000000000000000000000000000000000000000000000000000000000000000000000000000000000000000000000000000000000000000000000000000000000000000000000000000000000000000000000000000000000000000000000000000000000000000000000000000000000000000000000000000000000000000000000000000000000000000000000000000000000000000000000000000000000000000000000000000000000000000000000000000000000000000000000000000000000000000000000000000000000000000000000000000000000000000000000000000000000000000000000000000000000000000000000000000000000000000000000000000000000000000000000000000000000000000000000000000000000000000000000000000000000000000000000000000000000000000000000000000000000000000000000000000000000000000000000000000000000000000000000000000000000000000000000000000000130000000000000000000000000000000000000000000000000000000000000000000000000000000000000000000000000000000000000000000000000000000000000000000000000000000000000000000000000000000000000000000000000000000000000000000000000000000000000000000000000000000000000000000000000000000000000000000000000000000000000000000000000000000000000000000000000000000000000000000000000000000000000000000000000000000000000000000000000000000000000000000000000000000000000000000000000000000000000000000000000000000000000000000000000000000000000000000000000000000000000000000000000000000000000000000000000000000000000000000000000000000000000000000000000000000000000000000000000000000000000000000000000000000000000000000000000000000000000000000000000000000000000000000000000000000000000000000000000000000000000000000000000000000000000000000000000000000000000000000000000000000000000000000000000000000000000000000000000000000000000000000000000000000000000000000000000000000000000000000000141400000000000000000000000000000000000000000000000000000000000000000000000000000000000000000000000000000000000000000000000000000000000000000000000000000000000000000000000000000000000000000000000000000000000000000000000000000000000000000000000000000000000000000000000000000000000000000000000000000000000000000000000000000000000000000000000000000000000000000000000000000000000000000000000000000000000000000000000000000000000000000000000000000000000000000000000000000000000000000000000000000000000000000000000000000000000000000000000000000000000000000000000000000000000000000000000000000000000000000000000000000000000000000000000000000000000000000000000000000000000000000000000000000000000000000000000000000000000000000000000000000000000000000000000000000000000000000000000000000000000000000000000000000000000000000000000000000000000000000000000000000000000000000000000000000000000000000000000000000000000000000000000000000000000000000000000000000000000000000000000000000000000000000000000000000000000000000000000000000000000000000000000000000000000000000000000000000000000000000000000000000000000000000000000000000000000000000000000000000000000000000000000000000000000000000000000000000000000000000000000000000000000000000000000000000000000000000000000000000000000000000000000000000000000000000000000000000000000000000000000000000000000000000000000000000000000000000000000000000000000000000000000000000000000000000000000000000000000000000000
#06212:00231300
#0621b:2323
#05817:0013001300000000
#05816:13130000
#05812:0023002300000000
#0581b:23230000
#05915:00001300130000130000000013000013
#05918:00000013000013001300001300001300
#0591b:00130013
#05912:0000000013130000
#0591a:24
#05914:24
#0591f:21
#06017:0000000013000000000000000000000000000013000000000000000000000000
#06016:0000000000000000000000130000000000000000000000000000000000000000
#06015:0000000000000013
#06018:00000013
#0601b:2300230000130000
#06012:23000000000023230000000000000000
#06010:41
#0641b:00000013000013130000000013000000
#0641b:00000000000000130000000000000000
#06418:00130000000000000000130000000000
#06416:00000000000000130000000000000000
#06412:1300000000000000130000000000000000000013000000000000000000000000
#06417:0000000000000013
#06415:0013000000000000
#03815:0000000000131313
#03818:0000000013131300
#03812:0013000013000000
#0381b:13000000001300000000000000001300
#03816:1300001300000000
#03814:00130000
#03819:00000013000000000000000000000000
#07052:00000033
#07058:00000033
#0715a:00000044
#07152:00000044
#07252:00000036
#07258:00000046
#04458:00000012
#03752:5353
#03756:0023000000230000
#03757:00530043
#0375b:0000002300000000
#07352:0053
#0735b:0000000000000053
#07356:0000000053000053
#07457:23
#07456:00000034
#0745a:00000044
#07452:23
#00557:0063
#0055b:0000000000000000000000000000000000000023000000000000000000000000
#00652:0000000000000033
#0065b:0000000000430000
#01052:00000063
#03156:000000000000000000000000000000000000000000000000000000000000000000000000000000000000000000000000000000000000000000000000000000000000000000000000000000000000000000000000000000000000000000000000000000000000000000000000000000000000000000000000000000000000000000000000000000000000000000000000000000000000000000000000000000000000000000000000000000000000000000000000000000000000000000000000000000000000000000000000000000000000000000000000000000000000000000000000000000000000000000000000242400000000000000000000000000000000000000000000000000000000000000000000000000000000000000000000000000000000000000000000000000000000000000000000000000000000000000000000000000000000000000000000000000000000000000000000000000000000000000000000000000000000000000000000000000000000000000000000000000000000000000000000000000000000000000000000000000000000000000000000000000000000000000000000000000000000000000000000000000000000000000000000000000000000000000000000000000000000000000000000000000000000000000000000000000000000000000000000000000000000000000000000000000000000000000000000000000000000000000000000000000000000000000000000000000000000000000000000000000000000000000000000000000000000000000000000000000000000000000000000000000000000000000000000000000000000000000000000000000000000000000000000000000000000000000000000000000000000000000000000000000000000000000000000000000000000000000000000000000000000000000000000000000000000000000000000000000000000000000000000242400000000000000000000000000000000000000000000000000000000000000000000000000000000000000000000000000000000000000000000000000000000000000000000000000000000000000000000000000000000000000000000000000000000000000000000000000000000000000000000000000000000000000000000000000000000000000000000000000000000000000000000000000000000000000000000000000000000000000000000000000000000000000000000000000000000000000000000000000000000000000000000000000000000000000000000000000000000000000000000000000000000000000000000000000000000000000000000000000000000000000000000000000000000000000000000000000000000000000000000000000000000000000000000000000000000000000000000000000000000000000000000000000000000000000000000000000000000000000000000000000000000000000000000000000000000000000000000000000000000000000000000000000000000000000000000000000000000000000000000000000000000000000000000000000000000000000000000000000000000000000000000000000000000000000000000000000000000000000000000242400000000000000000000000000000000000000000000000000000000000000000000000000000000000000000000000000000000000000000000000000000000000000000000000000000000000000000000000000000000000000000000000000000000000000000000000000000000000000000000000000000000000000000000000000000000000000000000000000000000000000000000000000000000000000000000000000000000000000000000000000000000000000000000000000000000000000000000000000000000000000000000000000000000000000000000000000000000000000000000000000000000000000000000000000000000000000000000000000000000000000000000000000000000000000000000000000000000000000000000000000000000000000000000000000000000000000000000000000000000000000000000000000000000000000000000000000000000000000000000000000000000000000000000000000000000000000000000000000000000000000000000000000000000000000000000000000000000000000000000000000000000000000000000000000000000000000000000000000000000000000000000000000000000000000000000000000000000000000000000000000000000000000000000000000000000000000000000000000000000000000000000000000000000000000000000000000000000000000000000000000000000000000000000000000000000000000000000000000000000000000000000000000000000000000000000000000000000000000000000000000000000000000000000000000000000000000000000000000000000000000000000000000000000000000000000000000000000000000000000000000000000000000000000000000000000000000000000000000000000000000000000000000000000000000000000000000000000000000000000
#0315a:54545400
#03152:64646400
#05056:63000043000000000000230000000000
#05052:0000002300000000000000000000000053000000000000003300000000000000
#0505b:63000043000000000000230000000000
#05057:0000002300000000000000000000000053000000000000003300000000000000
#0525b:00000033
#05256:00000033
#05752:00000034
#0575a:00000044
#07756:63
#07752:0023
#04252:00000034
#0425a:00000044
#0045b:00000043
#00452:00000033
#00357:0063
#00356:0000000000000063
#00956:48480000
#00952:0038000000000000
#0115b:0053
#01157:0000000000000000000000000000000000000023000000000000000000000000
#0125b:00000013
#01258:0053
#01255:0063
#01252:00000013
#0025b:00000043
#00252:00000033
#00157:0000000000000053
#00156:0053
#0145b:23000043
#01455:00000033
#01357:0000000000000053
#01356:0053
#01652:23000033
#01658:00000043
#01556:0000000000000063
#01557:0063
#02752:0034
#0255b:0043
#02652:0000000000330000
#0265b:00000043
#0285b:00000043
#02852:00000033
#02856:0013
#0325b:4343
#03252:00333300
#03355:16161600
#03452:00000033
#0345b:00000043
#04056:00000000000000530000000000000000
#04052:0000000000000000000000000000000000000023000000000000000000000000
#0415b:63436343
#04157:0023000000230000
#04156:33633300
#04152:0000002300000000
#04358:0062
#0435c:0000000000000062
#04556:0052
#04552:0000000000000052
#05156:0034004400340044
#05456:00000043
#0545b:00000043
#05558:0052
#05556:62
#06556:00330033
#06557:0043
#0665b:0013
#06658:00000013
#06652:0000000000000013
#06655:0000000000130000
#06952:53335333
#06956:0023000000230000
#06957:43534300
#0695b:0000002300000000
#07652:00000034
#07656:23000044
#0765b:23
#0755b:0063
#07552:0000000000000063
#07557:0000000063000063
#01752:0063
#01756:0000000000000000000000000000000000000023000000000000000000000000
#0185b:0000000000430000
#01852:0000000000000033
#0195b:0053
#01957:0000000000000000000000000000000000000023000000000000000000000000
#02056:00000048
#00852:00000038
#0225b:00000053
#02156:0048000000000000
#02152:38380000
#02352:0063
#02356:0000000000000000000000000000000000000023000000000000000000000000
#02455:00000034
#02457:0000000000440000
#0615b:63634300
#06157:0023002300004300
#06152:33005353
#06156:0000330000230023
#06257:0023000000000000
#06256:000000000000000000000000000000000000000000000000000000000000000000000000000000000000000000000000000000000000000000000000000000000000000000000000000000000000000000000000000000000000000000000000000000000000000000000000000000000000000000000000000000000000000000000000000000000000000000000000000000000000000000000000000000000000000000000000000000000000000000000000000000000000000000000000000000000000000000000000000000000000000000000000000000000000000000000000000000000000000000000000000000000000000000000000000000000000000000000000000000000000000000000000000000000000000000000000000000000000000000000000000000000000000000000000000000000000000000000000000000000000000000000000000000000000000000000000000000000000000000000000000000000000000000000000000000000000000000000000000000000000000000000000000000000000000000000000000000000000000000000000000000000000000000000000000000000000000000000000000000000000000000000000000000000000000000000000000000000000000000000000000000000000000000000000000000000000000000000000000000000000000000000000000000000000000000000000000000000000000000000000000000000000000000000000000000000000000000000000000000000000000000000000000000000000000000000000000000000000000000000000000000000000000000000000000000000000000000000000000000000000000000000000000000000000000000000000000000000000000000000000000000000000000000000000000000000000000000000000000000000000000000000000000000000000000000000000000000000000000000000000230000000000000000000000000000000000000000000000000000000000000000000000000000000000000000000000000000000000000000000000000000000000000000000000000000000000000000000000000000000000000000000000000000000000000000000000000000000000000000000000000000000000000000000000000000000000000000000000000000000000000000000000000000000000000000000000000000000000000000000000000000000000000000000000000000000000000000000000000000000000000000000000000000000000000000000000000000000000000000000000000000000000000000000000000000000000000000000000000000000000000000000000000000000000000000000000000000000000000000000000000000000000000000000000000000000000000000000000000000000000000000000000000000000000000000000000000000000000000000000000000000000000000000000000000000000000000000000000000000000000000000000000000000000000000000000000000000000000000000000000000000000000000000000000000000000000000000000000000000000000000000000000000000000000000000000000000000000000000000000000242400000000000000000000000000000000000000000000000000000000000000000000000000000000000000000000000000000000000000000000000000000000000000000000000000000000000000000000000000000000000000000000000000000000000000000000000000000000000000000000000000000000000000000000000000000000000000000000000000000000000000000000000000000000000000000000000000000000000000000000000000000000000000000000000000000000000000000000000000000000000000000000000000000000000000000000000000000000000000000000000000000000000000000000000000000000000000000000000000000000000000000000000000000000000000000000000000000000000000000000000000000000000000000000000000000000000000000000000000000000000000000000000000000000000000000000000000000000000000000000000000000000000000000000000000000000000000000000000000000000000000000000000000000000000000000000000000000000000000000000000000000000000000000000000000000000000000000000000000000000000000000000000000000000000000000000000000000000000000000000000000000000000000000000000000000000000000000000000000000000000000000000000000000000000000000000000000000000000000000000000000000000000000000000000000000000000000000000000000000000000000000000000000000000000000000000000000000000000000000000000000000000000000000000000000000000000000000000000000000000000000000000000000000000000000000000000000000000000000000000000000000000000000000000000000000000000000000000000000000000000000000000000000000000000000000000000000000000000000000000
#06252:33535334
#0625b:63436300
#0625a:00000044
#06057:0000000023000000000000000000000000000023000000000000000000000000
#06056:0000000000000000000000230000000000000000000000000000000000000000
#0605b:43000000530000430000000000000000
#06052:63000000330000530000000000000000
#0785b:0000000000000043
#07852:0000000000000033
#00756:0053
#00752:0000000000000000000000000000000000000023000000000000000000000000
#03657:00000000000000530000000000000000
#0365b:0000000000000000000000000000000000000023000000000000000000000000
#06857:00000000000000530000000000000000
#0685b:0000000000000000000000000000000000000023000000000000000000000000
#06456:00000000000000630000000000000000
#06452:0000000000000000000000000000000000000023000000000000000000000000
#03858:0000000000130000
#0385b:2300000000000013
#03855:00000013
#03852:0013
#05954:34
#0595a:44
#06352:34
#06358:44
#0675a:44
#06754:34
#0355a:14
#03552:14
#03952:14
#0395a:14
#001360:0013
#001320:00000000000000000000002300000000
#001370:0000000000000013
#0023b0:0023000000000000
#003370:0013
#0033b0:00000000000000000000002300000000
#003360:0000000000000013
#004320:0023000000000000
#005370:00000000000000001300002300000000
#0053b0:0000000000000000000000000000000000000053000000000000000000000000
#0063a0:1424000000000000
#006320:0000142400000000
#007360:00000000000000001300002300000000
#007320:0000000000000000000000000000000000000053000000000000000000000000
#008320:1424000000000000
#0083a0:0000142400000000
#0093b0:0000000013230000
#009320:0000000000001323
#0103b0:13
#010370:0023000000000000
#0103b0:00130000
#010370:0000002300000000
#010320:00000013
#011370:23
#0113b0:00000000000000001300002300000000
#011370:0000000000000000000000000000000000000053000000000000000000000000
#0123a0:1424000000000000
#012320:0000142400000000
#012380:0013
#0123b0:0000000000532300
#012351:0013
#012321:0000000000532300
#013361:0013
#013321:00000000000000000000002300000000
#013371:0000000000000013
#0143b1:53
#014371:0023000000000000
#015371:0013
#0153b1:00000000000000000000002300000000
#015361:0000000000000013
#016321:53
#016361:0023000000000000
#017321:00000000000000001300002300000000
#017361:0000000000000000000000000000000000000053000000000000000000000000
#0183a1:14
#018361:0024000000000000
#018361:00140000
#018321:0000002400000000
#0193b1:00000000000000001300002300000000
#019371:0000000000000000000000000000000000000053000000000000000000000000
#020321:14
#020361:0024000000000000
#020361:00140000
#0203a1:0000002400000000
#021321:0000000013230000
#0213b1:0000000000001323
#022321:13
#022361:0023000000000000
#022321:00130000
#022361:0000002300000000
#0223b1:00000013
#023361:23
#023321:00000000000000001300002300000000
#023361:0000000000000000000000000000000000000053000000000000000000000000
#0243a1:14
#024361:0024000000000000
#024361:00140000
#024321:0000002400000000
#0253b1:13332300
#025361:0033003300000000
#028381:00000000000000000000133300000000
#0283b1:00000023
#028350:00000000000000000000001300000000
#028320:00000023
#029320:0000000000000013
#030350:33
#030320:0023000000000000
#0293b1:0000000000000013
#030381:33
#0303b1:0023000000000000
#0313a1:14343424
#031361:0054005400540000
#031320:14343424
#031360:000000000000000000000000000000000000000000000000000000000000000000000000000000000000000000000000000000000000000000000000000000000000000000000000000000000000000000000000000000000000000000000000000000000000000000000000000000000000000000000000000000000000000000000000000000000000000000000000000000000000000000000000000000000000000000000000000000000000000000000000000000000000000000000000000000000000000000000000000000000000000000000000000000000000000000000000000000000000000000000000005400000000000000000000000000000000000000000000000000000000000000000000000000000000000000000000000000000000000000000000000000000000000000000000000000000000000000000000000000000000000000000000000000000000000000000000000000000000000000000000000000000000000000000000000000000000000000000000000000000000000000000000000000000000000000000000000000000000000000000000000000000000000000000000000000000000000000000000000000000000000000000000000000000000000000000000000000000000000000000000000000000000000000000000000000000000000000000000000000000000000000000000000000000000000000000000000000000000000000000000000000000000000000000000000000000000000000000000000000000000000000000000000000000000000000000000000000000000000000000000000000000000000000000000000000000000000000000000000000000000000000000000000000000000000000000000000000000000000000000000000000000000000000000000000000000000000000000000000000000000000000000000000000000000000000000000000000000000000000000000005400000000000000000000000000000000000000000000000000000000000000000000000000000000000000000000000000000000000000000000000000000000000000000000000000000000000000000000000000000000000000000000000000000000000000000000000000000000000000000000000000000000000000000000000000000000000000000000000000000000000000000000000000000000000000000000000000000000000000000000000000000000000000000000000000000000000000000000000000000000000000000000000000000000000000000000000000000000000000000000000000000000000000000000000000000000000000000000000000000000000000000000000000000000000000000000000000000000000000000000000000000000000000000000000000000000000000000000000000000000000000000000000000000000000000000000000000000000000000000000000000000000000000000000000000000000000000000000000000000000000000000000000000000000000000000000000000000000000000000000000000000000000000000000000000000000000000000000000000000000000000000000000000000000000000000000000000000000000000000000005400000000000000000000000000000000000000000000000000000000000000000000000000000000000000000000000000000000000000000000000000000000000000000000000000000000000000000000000000000000000000000000000000000000000000000000000000000000000000000000000000000000000000000000000000000000000000000000000000000000000000000000000000000000000000000000000000000000000000000000000000000000000000000000000000000000000000000000000000000000000000000000000000000000000000000000000000000000000000000000000000000000000000000000000000000000000000000000000000000000000000000000000000000000000000000000000000000000000000000000000000000000000000000000000000000000000000000000000000000000000000000000000000000000000000000000000000000000000000000000000000000000000000000000000000000000000000000000000000000000000000000000000000000000000000000000000000000000000000000000000000000000000000000000000000000000000000000000000000000000000000000000000000000000000000000000000000000000000000000000000000000000000000000000000000000000000000000000000000000000000000000000000000000000000000000000000000000000000000000000000000000000000000000000000000000000000000000000000000000000000000000000000000000000000000000000000000000000000000000000000000000000000000000000000000000000000000000000000000000000000000000000000000000000000000000000000000000000000000000000000000000000000000000000000000000000000000000000000000000000000000000000000000000000000000000000000000000000000000000000
#033320:0000000000001323
#034350:00000000000000000000133300000000
#034320:00000023
#034381:00000000000000000000001300000000
#0343b1:00000023
#035351:00001323000000000000000000000000
#0353b1:0013
#035361:0000000000230000
#035320:0000000000130000
#035370:00000023
#0353b1:00000013
#035361:0000000000000023
#036371:00000000000000130000000023000000
#0363b1:0000000000000000000000000000000000000053000000000000000000000000
#037321:13230000
#037361:0053000000000000
#037370:00132300
#0373b0:0000005300000000
#037321:00001323
#037361:0000000000530000
#0383b1:13
#038371:0023000000000000
#039381:00001323000000000000000000000000
#039321:0013
#039371:0000000000230000
#0393b0:0000000000130000
#039360:00000023
#039321:00000013
#039371:0000000000000023
#040361:00000000000000130000000023000000
#040321:0000000000000000000000000000000000000053000000000000000000000000
#0413b1:13230000
#041371:0053000000000000
#041360:00132300
#041320:0000005300000000
#0413b1:00001323
#041371:0000000000530000
#043381:0012
#0433c1:00000000000000000000002200000000
#0433c1:0000000000000012
#044381:0022000000000000
#045361:0012
#045321:00000000000000000000002200000000
#045321:0000000000000012
#046361:0022000000000000
#047371:13
#0473b1:0023000000000000
#047371:00130000
#0473b1:0000002300000000
#047361:0013
#047321:0000000000230000
#047361:00000013
#047321:0000000000000023
#048371:13230000
#0483b1:0033000000000000
#0483b1:00000000000000130000330000002300
#048371:00000033
#048360:00000000000000130000330000002300
#048320:00000033
#050360:13000023000000000000000000000000
#050320:0000005300000000000000000000000000000000000000000000000000000000
#0503b1:13000023000000000000000000000000
#050371:0000005300000000000000000000000000000000000000000000000000000000
#050371:00001323
#0503b1:0000000000530000
#050320:00001323
#050360:0000000000530000
#0523b0:0000000013332300
#052361:0000000000132300
#053321:13
#053361:0023000000000000
#053370:13
#0533b0:0023000000000000
#054360:00001323
#054340:00000000000000000033003300000000
#054320:0000000000330000
#0543b1:00001323
#054391:00000000000000000033003300000000
#054371:0000000000330000
#055361:12
#055321:0022
#055380:0012
#0563c0:22
#0583c0:0012
#058390:0000000000320000
#0583b0:00000032
#058380:0000000000000022
#058361:0012
#058331:0000000000320000
#058351:00000032
#058321:0000000000000022
#060321:13230000
#060371:0053000000000000
#0603b0:00000000130000230000000000000000
#060360:0000000000000000000000530000000000000000000000000000000000000000
#060321:00000000000000130000000023000000
#060371:0000000000000000000000000000000000000053000000000000000000000000
#0613b1:13532300
#061371:0053005300000000
#061320:00001353
#061360:0000000000530053
#062320:23
#0623b1:13230000
#062371:0053000000000000
#062320:00135324
#062360:0000005300540000
#0623b1:0013
#062361:000000000000000000000000000000000000000000000000000000000000000000000000000000000000000000000000000000000000000000000000000000000000000000000000000000000000000000000000000000000000000000000000000000000000000000000000000000000000000000000000000000000000000000000000000000000000000000000000000000000000000000000000000000000000000000000000000000000000000000000000000000000000000000000000000000000000000000000000000000000000000000000000000000000000000000000000000000000000000000000000000000000000000000000000000000000000000000000000000000000000000000000000000000000000000000000000000000000000000000000000000000000000000000000000000000000000000000000000000000000000000000000000000000000000000000000000000000000000000000000000000000000000000000000000000000000000000000000000000000000000000000000000000000000000000000000000000000000000000000000000000000000000000000000000000000000000000000000000000000000000000000000000000000000000000000000000000000000000000000000000000000000000000000000000000000000000000000000000000000000000000000000000000000000000000000000000000000000000000000000000000000000000000000000000000000000000000000000000000000000000000000000000000000000000000000000000000000000000000000000000000000000000000000000000000000000000000000000000000000000000000000000000000000000000000000000000000000000000000000000000000000000000000000000000000000000000000000000000000000000000000000000000000000000000000000000000000000000000000000000000000000000000000000000000000000000000000000000000000000000000000000000000000000000000000000000000000000000000000000000000000000000000000000000000000000000000000000000000000000000000000000000000000000000000000000000000000000000000000000000000000000000000000000000000000000000000000000000000000000000000000000000000000000000000000000000000000000000000000000000000000000000000000000000000000000000000000000000000000000000000000000000000000000000000000000000000000000000000000000000000000000000000000000000000000000000000000000000000000000000000000000000000000000000000000000000000000000000000000000000000000000000000000000000000000000000000000000000000000000000000000000000000000000000000000000000000000000000000000000000000000000000000000000000000000000000000000000000000000000000000000000000000000000000000000000000000000000000000000000000000000000000000000000000000000000000000000000000000000000000000000000000000000000000000000000000000000000000000000000000000005400000000000000000000000000000000000000000000000000000000000000000000000000000000000000000000000000000000000000000000000000000000000000000000000000000000000000000000000000000000000000000000000000000000000000000000000000000000000000000000000000000000000000000000000000000000000000000000000000000000000000000000000000000000000000000000000000000000000000000000000000000000000000000000000000000000000000000000000000000000000000000000000000000000000000000000000000000000000000000000000000000000000000000000000000000000000000000000000000000000000000000000000000000000000000000000000000000000000000000000000000000000000000000000000000000000000000000000000000000000000000000000000000000000000000000000000000000000000000000000000000000000000000000000000000000000000000000000000000000000000000000000000000000000000000000000000000000000000000000000000000000000000000000000000000000000000000000000000000000000000000000000000000000000000000000000000000000000000000000000000000000000000000000000000000000000000000000000000000000000000000000000000000000000000000000000000000000000000000000000000000000000000000000000000000000000000000000000000000000000000000000000000000000000000000000000000000000000000000000000000000000000000000000000000000000000000000000000000000000000000000000000000000000000000000000000000000000000000000000000000000000000000000000000000000000000000000000000000000000000000000000000000000000000000000000000000000000000000000000000
#0623a1:00000024
#0633b1:0013000000000000
#063371:00000023000000000000000000000000
#063340:00000013230000000000000000000000
#064360:00000000000000130000000023000000
#064320:0000000000000000000000000000000000000053000000000000000000000000
#065370:0013000000000000
#065390:00000033000000000000000000000000
#0653b0:00230000
#065360:0000001300000000
#065340:00000000000000330000000000000000
#065320:0023
#065370:0000000000130000
#065390:00000000000000000000003300000000
#0653b0:00000023
#067320:0013000000000000
#067360:00000023000000000000000000000000
#067391:00000013230000000000000000000000
#068371:00000000000000130000000023000000
#0683b1:0000000000000000000000000000000000000053000000000000000000000000
#069321:13230000
#069361:0053000000000000
#069370:00132300
#0693b0:0000005300000000
#069321:00001323
#069361:0000000000530000
#073321:0013
#073371:00000000000000000000002300000000
#073360:0013
#0733b0:00000000000000000000002300000000
#0733b0:0000000000000013
#074370:53
#0743b0:0023000000000000
#073361:0000000000000013
#074321:53
#074361:0023000000000000
#0753b1:0013
#075361:00000000000000000000002300000000
#075370:0013
#075320:00000000000000000000002300000000
#075320:0000000000000013
#076360:53
#076320:0023000000000000
#075371:0000000000000013
#0763b1:53
#076371:0023000000000000
#077361:13
#077321:0053
#078361:23
#078321:0000000000133300
#0783b1:0000000000000023
#0783b0:0000000000130000
#078320:0000000000000023
