This file was generated by Ched 2.6.4.0.
#TITLE ""
#ARTIST ""
#DESIGNER ""
#DIFFICULTY 0
#PLAYLEVEL
#SONGID ""
#WAVE ""
#WAVEOFFSET 0
#JACKET ""
#REQUEST "ticks_per_beat 480"
#00002: 4
#BPM01: 152
#00008: 01
#TIL00: ""
#HISPEED 00
#MEASUREHS 00
#00212:00140000
#00218:1414
#00414:1414
#0041a:00140000
#02612:14141400
#03514:00140000
#0351a:24
#03510:41
#03612:14
#03618:00140000
#0471a:14
#04714:00140000
#04718:0014
#04712:00000014
#0471f:11
#0481a:14141414
#05914:00140000
#05918:0014
#05912:00000014
#0591a:24
#0591f:21
#00618:14
#00612:00140000
#0061a:0014
#0111a:14
#01112:0014
#01218:1414
#01214:00140000
#0011a:14
#00114:0014
#00312:14
#00318:0014
#00812:14
#0081a:00140000
#00814:0014
#0141a:00140000
#01414:1414
#01618:1414
#01612:00140000
#01814:14
#0181a:00140000
#01812:0014
#02312:14
#0231a:0014
#02414:1414
#02418:00140000
#01312:14
#01318:0014
#0151a:14
#01514:0014
#01510:41
#0201a:14
#02018:0014
#02012:00140000
#0251a:24141400
#02510:41
#0381a:00140000
#03812:14
#03814:00001414
#03818:0000000000140014
#03918:00140000
#03912:24
#0401a:14
#04014:00140000
#0531a:14
#05312:00140000
#05318:0014
#05314:00000014
#05418:14
#0541a:0014
#05514:0014
#05618:14
#05614:0014
#05719:14
#05713:14
#06314:00160000
#06313:0016
#06312:26000016
#06413:1616
#06414:00160000
#06718:00140000
#0671a:00000014
#06714:0014
#06712:24
#06812:14
#06814:0014
#06818:00140000
#0731a:14
#07314:00140000
#07412:1414
#07418:00140000
#07512:14
#07518:00140000
#0761a:1414
#07614:00140000
#03214:1414
#03218:00140000
#03319:14141400
#03313:14141400
#0371a:14
#03712:00140000
#03718:00001414
#04914:14
#04912:00000014
#04913:00340000
#05018:14
#0501a:00000014
#05019:00340000
#05112:14
#05118:00140000
#05114:0014
#0511a:00000014
#05212:14141414
#0601a:14
#06014:00140000
#06018:0014
#06010:41
#02718:14141400
#02814:14141400
#04212:16161600
#04218:0016001600000000
#02112:14
#0221a:14
#0091a:14
#01012:14
#03118:14
#0311a:0000001400000000
#07712:1434
#07815:14
#07812:00343400
#07112:16161600
#07118:0016001600000000
#07018:16161600
#07012:0016001600000000
#0661a:00140000
#06612:14
#06614:00001414
#06618:0000000000140014
#0651a:14
#06512:00140000
#06518:00001414
#04112:26
#04118:0026
#06918:26
#06912:0026
#06910:41
#07218:26262600
#07212:0026002600000000
#06218:0026
#06212:26
#05813:00000024
#03415:0026
#00510:41
#05458:54
#0545a:0024
#06353:0066
#06352:56000026
#06354:00260000
#06453:5656
#06454:00260000
#04954:64
#05058:54
#01054:0014
#01052:64
#02258:0014
#0225a:54
#02154:0014
#02152:54
#07852:0000000000000014
#07855:54
#0095a:64
#00958:0014
#03158:54
#0315a:0000002400000000
#07752:54
#05853:00000014
#07258:0016
#03455:0016
#0053a0:14
#005380:0024
#007340:14
#007320:0024
#0093a0:14
#009380:0024
#010320:14
#010340:0024
#017320:14
#017340:0024
#019380:14
#0193a0:0024
#021320:14
#021340:0024
#0223a0:14
#022380:0024
#0293a0:1424
#029380:00340000
#030320:1424
#030340:00340000
#031380:14000024
#0313a0:0000005400000000
#034350:1636363626000000
#0353a0:00001424
#036320:00001424
#039320:00001424
#0403a0:00001424
#041320:16260000
#041380:00001626
#043380:14
#0433a0:0034
#044380:3424
#0443a0:00340000
#045340:14
#045320:0034
#046340:3424
#046320:00340000
#049340:14
#049330:00340000
#049320:0024
#050380:14
#050390:00340000
#0503a0:0024
#054380:14
#0543a0:0054
#055380:24
#058330:1434343434002400
#061320:16260000
#061380:00001626
#062320:16260000
#062380:00001626
#063320:16000056
#063340:00560000
#063330:0056
#064330:5656
#064340:00560000
#064320:00000026
#069380:16260000
#069320:00001626
#073380:00001424
#075340:00001424
#077320:1434
#078350:34
#078320:0000340034343424
