This file was generated by Ched 2.6.4.0.
#TITLE ""
#ARTIST ""
#DESIGNER ""
#DIFFICULTY 0
#PLAYLEVEL
#SONGID ""
#WAVE ""
#WAVEOFFSET 0
#JACKET ""
#REQUEST "ticks_per_beat 480"
#00002: 4
#BPM01: 165
#00008: 01
#TIL00: ""
#HISPEED 00
#MEASUREHS 00
#00419:14
#0141a:14
#01514:14
#0161a:14
#0171a:14
#01812:14
#01918:14
#02012:14
#02112:14
#03018:14
#0301f:11
#03112:14
#03414:14
#0351a:14
#03812:0016
#03818:26
#0381f:21
#04012:1616
#04218:0016
#04212:16
#04418:1616
#04612:0016
#04618:26
#04718:1616
#05018:0016
#05012:16
#05010:41
#05112:1616
#05812:0016
#05818:26
#06212:16
#06218:0016
#06118:1616
#06618:2616
#06610:41
#06812:16
#06818:0016
#06912:16
#06918:0016
#07012:1616
#07218:16
#07212:0016
#07318:16
#07312:0016
#07612:14
#07618:0014
#07918:14
#07912:0014
#0801a:14
#08014:0014
#00313:14
#00513:14
#0751a:0014
#07514:14
#07510:41
#04118:1616
#04512:1616
#06012:1616
#06418:1616
#06512:1616
#0061a:14
#0071a:14
#00812:14
#00912:14
#08312:16
#08318:0016
#05312:26
#07418:26
#03910:41
#01010:41
#02210:41
#000390:14
#002390:24
#010380:14
#011380:24
#012340:14
#013340:24
#0223a0:14
#0233a0:24
#024340:14
#025340:24
#026380:14
#027380:24
#028320:14
#029320:24
#0323a0:14
#0333a0:24
#036320:1400000034000034
#037320:0034342400000000
#039380:1626
#043320:1626
#048320:1626
#049380:1626
#052380:1626
#054390:14
#055390:24
#056330:14
#057330:24
#059380:16362600
#063320:16362600
#067380:16362600
#071320:16362600
#077340:14
#078340:24
#081380:14
#082380:24
#084320:16
#089330:0000000000000024
