This file was generated by Ched 2.6.4.0.
#TITLE ""
#ARTIST ""
#DESIGNER ""
#DIFFICULTY 0
#PLAYLEVEL
#SONGID ""
#WAVE ""
#WAVEOFFSET 0
#JACKET ""
#REQUEST "ticks_per_beat 480"
#00002: 4
#BPM01: 165
#00008: 01
#TIL00: ""
#HISPEED 00
#MEASUREHS 00
#00212:1313
#00217:1313
#0021b:00130013
#00216:00130013
#01015:0000130013001313
#0101b:2313
#01018:00001300000000000000130000130013
#01012:2300001300000000
#01010:41
#01115:13130000
#0111b:0013000000000013
#01118:0000001300000000
#01117:00000013
#01116:0000000000000013
#01212:0016000013000000
#01215:0000000000001313
#01218:00000000000016000000000000130013
#0121b:0000000000130000
#01318:0013000013000000
#01312:00130013
#01315:1300001300130000
#0131b:00130013
#01415:00130000
#01412:2300001300000000
#01418:0013000000000000
#0141b:23130000
#0151b:13
#01512:0000000000130000
#01518:00000013
#01515:0000000000000013
#01517:0000001300000000
#01516:0013000000000000
#01612:00130000
#0161b:1300001300001300
#01615:0000000000000013
#01616:0013
#01718:13
#0171b:0000001300000000
#01716:0000001300000000
#01712:0013000000000000
#0231b:1313
#02317:00130013
#02316:13
#03715:0000000000000013
#03712:00260000
#03718:0026002600002600
#05618:1200000000120000
#05616:0012
#05614:00220022
#0561a:00220022
#05716:1200000000000014
#05718:0000001200000000
#05714:0000220000222200
#0571a:0000220000222200
#07415:0013
#07418:0000000013000013
#0041b:1313
#00417:00130013
#00517:1313
#0051b:00130000
#00612:1313
#00616:00130013
#0061b:00130013
#00617:0013
#03912:00131300
#0391b:0000000000000013
#03910:41
#04118:0013001300000013
#0411b:1300000000130000
#04115:00130013
#04112:1313
#04012:0013000000000013
#04016:0000001313000000
#04017:0013000000001300
#0401b:0013
#03818:0000001300001300
#03812:0000000000000013
#03815:00002313
#0381b:2300000000000013
#0381f:21
#05418:1200000000120000
#05414:0012
#05416:00220022
#0541a:00220022
#05516:1200000000120000
#0551a:0012
#05518:00220022
#05514:00220022
#05912:00141400
#0591a:0000140000000024
#05916:00000024
#06118:0013000000002300
#0611b:1300130023000013
#06112:2300001300001300
#06115:0000230000130000
#06014:0000000000000013
#06012:0013001300130000
#0601b:00131313
#06017:0013000000000000
#06016:0013
#0631a:00141424
#06316:0000001400140000
#06312:00140000
#06314:0000000000000024
#06412:0013000000002300
#06415:0000130000130013
#06418:0000001300001300
#0641b:00231300
#0581a:2400001400000014
#05818:00000014
#05812:0000000024000014
#05814:00000014
#06212:0000001400000014
#06216:00140000
#0621a:0014000024000014
#06218:00000014
#06214:24000014
#07318:0013000013000000
#07312:1300001300000000
#0731b:13130000
#07315:0000230000232323
#02216:00130013
#02212:2313
#02217:13
#02210:41
#02417:1313
#0241b:00130013
#02412:13
#0251b:0013130000000000
#02512:0013
#02517:0000001300000000
#02612:1313
#02616:00130013
#02812:1300000000000013
#0281b:1300000000000013
#02918:1300000000130013
#02915:13000013
#0291b:00130000
#02912:00130000
#0321b:00130013
#03212:13
#03216:0000001300000000
#0331b:00130013
#03315:0000000000000013
#0301b:2300130000130013
#03012:23130013
#03016:0000001300000000
#03017:0013
#0301f:11
#03112:1300001300001300
#0311b:0000130013000013
#03116:00130000
#03114:0013000000000000
#03119:0000000000130000
#03117:00000013
#03412:1300130000130013
#0341b:13130013
#03417:0000001300000000
#03416:0013
#04212:0000001300000013
#04217:00130000
#0421b:0013000000000013
#04215:23000013
#04218:00002313
#04415:0000130000000013
#04418:0000001300001300
#0441b:0013000000130000
#04412:0013
#04316:0000001300000013
#0431b:00131300
#04317:0000000000130000
#04312:00130000
#05312:0000000000000013
#05315:2313
#05318:0013001300000000
#0531b:0000130000130000
#04915:0013001300000013
#04912:1300000000130000
#04918:00130013
#0491b:1313
#04615:0000001300001300
#0461b:0000000000000013
#04618:00002313
#04612:2300000000000013
#05012:0000001300000013
#0501b:2300000000000013
#05018:00160013
#05015:00002313
#05010:41
#0671a:00141400
#06712:0000140000000024
#06716:00000024
#06915:0013000000002300
#06912:1300130023000013
#0691b:2300001300001300
#06918:0000230000130000
#07112:00141424
#07116:0000001400140000
#0711a:00140000
#07118:0000000000000024
#06612:2400001400000014
#0661a:0000000024000014
#06618:00000014
#06614:00000014
#06610:41
#0701a:0000001400000014
#07016:00140000
#07012:0014000024000014
#07018:24000014
#07014:00000014
#0451b:0000000000000013
#04518:2424
#04514:00240024
#05218:0000130000000013
#05215:0000001300001300
#05212:0013000000130000
#0521b:0013
#0651a:0000000000000014
#06518:2626
#06512:00260026
#0721b:0013000000002300
#07215:0000001300001300
#07212:00231300
#07218:0000130000130013
#0771b:1313
#07717:00230023
#08112:13230013
#0811b:13130023
#08118:0013000013000013
#08115:0000001300130000
#08215:1300001300001300
#08218:0013000013000000
#0821b:0000130000230013
#08212:0000230000130023
#08915:00160000
#08916:16
#03516:0013
#0351b:1300001300000000
#03512:00130000
#03517:00130013
#03519:0013000000000000
#08715:00160016
#08716:16
#08714:0016
#08615:16000000160000001600000000160000
#08614:0016000000160000
#08616:0000001600000000
#08516:0000001600000016
#08515:16161616
#08514:0016000000160000
#08416:0000001600000016
#08415:16161616
#08414:0016000000160000
#08815:00160016
#08816:16
#08814:0016
#00916:0014000000140000
#00912:2400001400002400
#0091a:00242414
#0181b:1300001300000000
#01812:13130000
#01818:00130000
#01815:0013000000000000
#07817:1313
#07815:0000000000000013
#0781b:00230023
#07518:0013000023000000
#07512:00130013
#0751b:00130013
#07515:2300001300130000
#07510:41
#07915:0013000023000000
#0791b:00130013
#07912:00130013
#07918:2300001300130000
#08318:0000231300000000
#07616:00000013
#07612:13
#0081b:1313
#00817:00130013
#01912:13
#0191b:0000000000130000
#01915:00000013
#01918:0000000000000013
#01916:0000001300000000
#01917:0013000000000000
#0201b:00130000
#02012:1300001300001300
#02018:0000000000000013
#02017:0013
#02115:13
#02112:0000001300000000
#02117:0000001300000000
#0211b:0013000000000000
#0471b:00131300
#04712:0000000000000013
#0481b:0013000000000013
#04817:0000001313000000
#04816:0013000000001300
#04812:0013
#05117:0000001300000013
#05112:00131300
#05116:0000000000130000
#0511b:00130000
#06819:0000000000000013
#0681b:0013001300130000
#06812:00131313
#06816:0013000000000000
#06817:0013
#08017:00000013
#0801b:13
#03618:0026000026000000
#03612:2600000000260026
#07455:0023
#07458:0023
#03955:13
#03958:13
#03956:00000013
#0395b:0000000000000013
#03952:0053
#05954:14
#05958:14
#05952:0054
#0595a:0000640000000014
#05956:00000014
#06358:14
#06354:1400000000000034
#06356:0000002400240000
#0635a:00006444
#06352:00540000
#0585a:1400000000000024
#05858:00000054
#05852:0000000014000024
#05854:00000064
#0175b:0000006300000000
#01756:0000006300000000
#01752:0053000000000000
#01552:0000001300000000
#01556:0063000000000000
#03252:53
#03256:0000006300000000
#04355:13
#04358:13
#04357:0000000000230000
#0435b:00006343
#04356:0000002300000033
#04352:00530000
#04758:13
#04755:13
#04752:0000000000000013
#0475b:0063
#04757:00000013
#05158:13
#05155:13
#05156:0000000000230000
#05152:00005333
#05157:0000002300000043
#0515b:00630000
#06652:1400000000000024
#0665a:0000000014000024
#06658:00000054
#06654:00000064
#06758:14
#06754:14
#06752:0000540000000014
#0675a:0064
#06756:00000014
#07154:14
#07158:1400000000000044
#07156:0000002400240000
#07152:00005434
#0715a:00640000
#04558:4444
#04554:00340034
#06558:4646
#06552:00360036
#08955:00560000
#08956:26
#03852:0000000000000023
#03855:00000063
#0385b:0000000000000023
#03858:00000053
#04257:00230000
#0425b:0063000000000023
#04252:0000000000000023
#04255:00000063
#04258:00000053
#0465b:0000000000000023
#04658:00000053
#04652:0000000000000023
#04655:00000063
#0505b:0000000000000023
#05058:00160053
#05052:0000000000000023
#05055:00000063
#0165b:63
#01656:0063
#0295b:00230000
#02958:53
#02952:00230000
#02955:63
#03056:0000002300000000
#03052:00530000
#0305b:0000000000230000
#03057:0053
#03556:0063
#03557:00000053
#04056:0023
#04057:0053000000000000
#0535b:0000000000630000
#0605b:00230000
#06057:0053000000000000
#06052:0000000000230000
#06056:0063
#06256:00240000
#0625a:0064000014000024
#06258:00000054
#06252:0000000000000024
#06254:14000064
#07056:00240000
#07052:0054000014000024
#0705a:0000000000000024
#07058:14000054
#07054:00000064
#08755:00660066
#08756:26
#08754:0026
#08655:66000000660000006600000000660000
#08654:0026000000260000
#08656:0000002600000000
#08556:0000002600000026
#08555:66666666
#08554:0026000000260000
#08456:0000002600000026
#08455:66666666
#08454:0026000000260000
#08855:00660066
#08856:26
#08854:0026
#03758:00000016
#07555:13
#07558:0013
#07958:13
#07955:0013
#07652:1313
#0765b:00130000
#0255b:00630000
#02557:0000002300000000
#02152:0000005300000000
#02157:0000005300000000
#0215b:0063000000001300
#02156:00000013
#01957:0053000000000000
#0195b:0000001300000000
#02052:53
#02057:0053
#02257:53
#02356:63
#02452:23
#03457:0000002300000000
#0345b:00630000
#03452:0000000000230000
#03456:0063
#04857:0023
#04856:0063000000000000
#06852:00230000
#06856:0063000000000000
#0685b:0000000000230000
#06857:0053
#0805b:1313
#08052:00130000
#0033b0:13230000
#003321:13230000
#0033b1:0013
#003381:00000023
#003320:0013
#003350:00000023
#004360:1333
#004320:00330023
#005320:13003323
#005360:00330000
#005371:00000013
#006371:23
#0073b1:13230000
#007320:13230000
#0073b0:0013
#007380:00000023
#007321:0013
#007351:00000023
#008361:1333
#008321:00330023
#011321:00001323
#014371:0000000013230000
#014320:0000000000132300
#0143b1:0000000000001323
#014360:0000000000000013
#015360:23
#015360:0013000000000000
#015320:0000002300000000
#0163b0:13
#016370:00230000
#016360:0013
#016320:00000023
#017320:0013000000002300
#017360:0000003300000000
#0173b1:0000001300000000
#017371:00000023
#018361:0000000013230000
#0183b0:0000000000132300
#018321:0000000000001323
#018370:0000000000000013
#019370:23
#019370:0013000000000000
#0193b0:0000002300000000
#020320:13
#020360:00230000
#020370:0013
#0203b0:00000023
#0213b0:0013000000002300
#021370:0000003300000000
#021321:0000001300000000
#021361:00000023
#022371:13
#0223b1:00000023
#023361:13
#023321:00000053
#024321:33
#024361:00000023
#024321:0000000000000013
#025361:33
#025321:0023000000000000
#0253b1:00132300
#025371:0000005300000000
#026371:1333
#0263b1:00330023
#027351:16260000
#027371:0013
#0273b1:0000000000532300
#027320:0013
#027360:0000000000532300
#028350:00130023
#028381:00001323
#029351:1323
#029321:00330000
#029380:1323
#0293b0:00330000
#030320:00132300
#030360:0000005300000000
#030371:00001323
#0303b1:0000000000530000
#032321:13
#032361:0000003300000000
#033321:00000023
#0343b1:00132300
#034371:0000005300000000
#034360:00001323
#034320:0000000000530000
#035360:0013
#035320:00000023
#035371:00000013
#0363b1:23
#036320:1626000000000000
#036380:0000000016260000
#036320:0000000000000016
#037320:0026000000000000
#038320:0013002300000000
#038380:0000000000133300
#0383b0:0000000000000053
#039380:23
#038351:00000013
#038321:0000000000000053
#039351:23
#0393b1:00132300
#039320:0013
#039360:00000023
#040370:0013000000000000
#0403b0:0000002300000000
#040360:0013
#040320:00000023
#0423b0:0013002300000000
#042370:00530000
#042350:0000000000133300
#042320:0000000000000053
#043350:23
#042381:00000013
#0423b1:0000000000000053
#043381:23
#043321:00132300
#043361:0000005300000000
#0433b0:00001323
#043370:0000000000530000
#0463b0:0013002300000000
#046350:0000000000133300
#046320:0000000000000053
#047350:23
#046381:00000013
#0463b1:0000000000000053
#047381:23
#047321:00132300
#0473b0:0013
#047370:00000023
#048360:0013000000000000
#048320:0000002300000000
#048370:0013
#0483b0:00000023
#050350:0013230000000000
#050380:0000000000133300
#0503b0:0000000000000053
#051380:23
#050351:00000013
#050321:0000000000000053
#051351:23
#0513b1:00132300
#051371:0000005300000000
#051320:00001323
#051360:0000000000530000
#0533b0:0000000000130000
#053370:0000000000000023
#058320:0014000000000000
#058360:0000542400000000
#058380:0000000000143400
#0583a0:0000000000000054
#059380:24
#058341:00000014
#058321:0000000000000054
#059341:24
#0593a1:00140000
#059361:0024
#059320:0014
#059360:00000024
#060370:0013002300000000
#0603b0:00530000
#060360:00001323
#060320:0000000000530000
#0623a0:0014002400000000
#062360:00540000
#062340:0000000000143400
#062320:0000000000000054
#063340:24
#062381:00000014
#0623a1:0000000000000054
#063381:24
#063321:00142400
#063361:0000005400000000
#0633a0:00001424
#063360:0000000000540000
#0663a0:0014000000000000
#066360:0000542400000000
#066340:0000000000143400
#066320:0000000000000054
#067340:24
#066381:00000014
#0663a1:0000000000000054
#067381:24
#067321:00140000
#067361:0024
#0673a0:0014
#067360:00000024
#068360:0013002300000000
#068320:00530000
#068370:00001323
#0683b0:0000000000530000
#070320:0014002400000000
#070360:00540000
#070380:0000000000143400
#0703a0:0000000000000054
#071380:24
#070341:00000014
#070321:0000000000000054
#071341:24
#0713a1:00142400
#071361:0000005400000000
#071320:00001424
#071360:0000000000540000
#073380:0000000000130000
#074380:0053
#0743c0:00000022
#073351:0000000000000013
#074351:0053
#074321:00000022
#076371:13
#0763b1:0053230000000000
#076360:00130000
#076320:0000005323000000
#076371:0013
#0763b1:0000000000532300
#077361:1333
#077321:00330023
#078321:1333
#078361:00330023
#080361:13
#080321:0053230000000000
#080370:00130000
#0803b0:0000005323000000
#080361:0013
#080321:0000000000532300
#083351:13230000
#083321:00001323
#0833b0:00000013
#0843b0:23
#084351:16565656
#084341:0056000000560000
#084361:0000005600000056
#085351:56565656
#085341:0056000000560000
#085361:0000005600000056
#086351:56000000560000005600000000560000
#086341:0056000000560000
#086361:0000005600000000
#087361:56
#087351:00560056
#087341:0056
#088361:56
#088351:00560056
#088341:0056
#089361:56
#089351:00560000
#089371:0000000000000022
