This file was generated by Ched 2.6.4.0.
#TITLE ""
#ARTIST ""
#DESIGNER ""
#DIFFICULTY 0
#PLAYLEVEL
#SONGID ""
#WAVE ""
#WAVEOFFSET 0
#JACKET ""
#REQUEST "ticks_per_beat 480"
#00002: 4
#BPM01: 165
#00008: 01
#TIL00: ""
#HISPEED 00
#MEASUREHS 00
#00212:1313
#0021b:00130013
#0101b:23000000000000001300000000000033
#01015:0013000000130000
#01012:0000001300000000
#01018:00130000
#01019:00000000000000000000000000330000
#0101a:0000000000000033
#01010:41
#01215:0013
#01212:00001300000000000000000000000033
#0121b:0013001300000000
#01218:0000000000130000
#01214:00000000000000000000000000330000
#01213:0000000000000033
#01318:0013000000130000
#01312:00000013
#01315:00131300
#0131b:0000001300000000
#01412:2300001300000013
#01418:00130013
#01415:0013000000130000
#0141b:2313
#01618:0000001300000000
#0161b:00000013
#01615:0000000000000013
#01612:0013
#01718:13
#01712:0000001300000000
#0231b:1313
#02315:00130013
#00418:1313
#00415:00000013
#00412:00130000
#00515:1313
#0051b:00130000
#00518:00000013
#01118:0000000013000013
#01115:0013000000001300
#0111b:00130000
#01112:0000001300000000
#04112:0013000000130000
#0411b:1313
#04118:00130013
#04115:0000001300000013
#04015:0000000013000013
#04018:0013000000001300
#0381b:0000001300130000
#03815:00002313
#03812:0013000000000000
#03818:23
#0381f:21
#06118:0013000000130000
#06112:0000001300000014
#06115:00232300
#0611b:23000023
#06015:0000000013000013
#06018:0013000000001300
#0601b:00130000
#06415:0013001300130000
#06412:0013
#0641b:0000000000000013
#06418:00230023
#0581a:0014000000001400
#05812:0000000000140000
#05814:2400001400000000
#05818:0000000024000014
#07318:0013001300000000
#07315:1300000013000023
#0731b:00230000
#0151b:1300000000000013
#01515:0013000000000000
#01518:0000000000130000
#01512:00000013
#02218:00130013
#02215:0013
#02212:23
#02210:41
#02412:1300000013000013
#02418:00130013
#02612:1313
#0261b:00130013
#02812:1313
#02815:0000130000000013
#02818:1313
#0281b:00130000
#0811b:0013000000002300
#08118:0000001300130000
#08115:0000000013000013
#08112:00230000
#02918:13000013
#0291b:00130000
#02915:0000000000130013
#06214:0014000024000014
#06212:00000014
#0621a:0000001400000000
#06218:2400000000140000
#00914:0014000000140000
#00912:0000001400002400
#0091a:00240014
#00918:2424
#0761b:13
#07612:00130000
#07618:0013
#00612:1313
#0061b:00130013
#00818:1313
#00815:00000013
#00812:00130000
#0181b:0000001300000013
#01815:00130013
#01818:0013000000130000
#01812:0013
#02015:0000001300000000
#02012:00000013
#02018:0000000000000013
#0201b:0013
#02115:13
#0211b:0000001300000000
#01912:1300000000000013
#01918:0013000000000000
#01915:0000000000130000
#0191b:00000013
#02518:13
#02512:0013000000000000
#03015:0000000000000013
#0301b:23130000
#03018:0013
#0301f:11
#03012:23
#0311b:1313
#03112:0013000000000013
#03118:00130013
#03115:0000001300130000
#03217:13
#0321b:0000001300000000
#03212:13
#03216:0000001300000000
#03418:0000000000000013
#03412:00130000
#03415:0013
#03512:13001313
#0351b:0013000013001300
#03515:00130000
#03518:0000001300000000
#03712:0000000000000013
#03714:00240000
#03718:0024002400000000
#03918:00130000
#0391b:0013
#03915:0000000000000013
#03910:41
#04212:0013000000001300
#04218:2300001300000000
#0421b:0000000000130000
#04215:0023
#0431b:00130000
#04318:0013
#04315:0000000000000013
#04718:0000000000000013
#04715:00130000
#04712:0013
#0491b:0013000000130000
#04912:1313
#04915:00130013
#04918:0000001300000013
#04818:0000000013000013
#04815:0013000000001300
#04612:0000001300130000
#04618:00002313
#0461b:0013000000000000
#04615:23
#0451b:0000000000000013
#04518:2424
#04514:00240024
#0501b:0013000000001300
#05015:2300001300000000
#05012:0000000000130000
#05018:0023
#05010:41
#05112:00130000
#05115:0013
#05118:0000000000000013
#05312:2313
#0531b:0000001300000000
#05315:00130000
#05318:0013000000000013
#05415:0013
#05418:0000000000130000
#05412:00000023
#05518:1313
#05515:0000000000130000
#05512:00230000
#0551b:00000023
#05615:1313
#05618:0000000000130000
#0561b:00230000
#05612:00000023
#05715:1300001300000000
#05718:0000230000000014
#05712:00000023
#0571b:0000000000230000
#04415:0000130000000013
#04418:0000001300001300
#0441b:0013000000130000
#04412:0013
#05218:0000130000000013
#05215:0000001300001300
#05212:0013000000130000
#0521b:0013
#05912:00140000
#05918:00000024
#05914:0000000000000024
#06317:00140000
#06314:00000024
#06318:0000000000000024
#06915:0013000000130000
#0691b:0000001300000000
#0691a:0000000000000014
#06918:00232300
#06912:23000023
#06818:0000000013000013
#06815:0013000000001300
#06812:00130000
#06612:0014000000001400
#0661a:0000000000140000
#06618:2400001400000000
#06614:0000000024000014
#06610:41
#07018:0014000024000014
#0701a:00000014
#07012:0000001400000000
#07014:2400000000140000
#06514:0000000000000014
#06512:2424
#0651a:00240024
#0671a:00140000
#06714:00000024
#06718:0000000000000024
#07115:00140000
#07118:00000024
#07114:0000000000000024
#07218:0013001300130000
#0721b:0013
#07212:0000000000000013
#07215:00230023
#07712:1313
#07718:00230023
#0781b:1300000013000013
#07815:00230023
#07412:0000000000000013
#07518:0013000023000000
#07515:2300001300000000
#0751b:0000000000130000
#07510:41
#07912:0000000000130000
#07918:2300001300000000
#07915:0013000023000000
#08015:0013
#0801b:00130000
#08012:13
#08215:0013000013000000
#08218:1300001300000000
#08212:00230000
#08312:00000013
#03614:0024000024000024
#03618:2400000000240000
#03952:13
#03958:00530000
#0395b:0063
#06352:14
#06357:00540000
#01552:0000001300000000
#01555:0063000000000000
#03855:00000063
#02958:53
#0295b:00630000
#0605b:00230000
#06058:0053000000000000
#06254:0000000000000024
#06252:00000054
#0765b:13
#07652:00130000
#07658:0013
#01752:0000005300000000
#01958:0053000000000000
#0195b:0000001300000000
#0215b:0000006300000000
#02157:00000013
#0305b:00630000
#03058:0053
#03257:53
#0325b:0000006300000000
#03252:53
#03256:0000006300000000
#03452:00530000
#03455:0063
#03758:00000014
#04058:0053000000000000
#04252:00000053
#04355:13
#0435b:00630000
#04358:0053
#04558:1414
#04554:00140014
#04658:00000053
#04755:00630000
#04752:0053
#0475b:13
#04855:0063000000000000
#0505b:00000063
#05152:00530000
#05155:0063
#05158:13
#05358:0000000000000053
#05952:00540000
#0595a:14
#05858:0000000000000024
#0585a:00000064
#06552:1414
#0655a:00140014
#06852:00230000
#06855:0063000000000000
#07058:0000000000000024
#0705a:00000064
#0675a:00640000
#06752:14
#06654:0000000000000024
#06652:00000054
#07155:00640000
#0715a:14
#08055:0013
#0805b:00130000
#08052:13
#003350:13230000
#003380:0013
#0033b0:00000023
#007350:13230000
#007380:0013
#0073b0:00000023
#010380:00000013
#010390:00000000000000000000000000330000
#0103a0:0000000000000033
#0103b0:00000000000000000000000000000033
#0113b0:23
#012350:00000013
#012340:00000000000000000000000000330000
#012330:0000000000000033
#012320:00000000000000000000000000000033
#013320:23
#015350:0013000000000000
#015320:0000002300000000
#016350:13230000
#017320:0013003300000000
#017360:00000023
#019380:0013000000000000
#0193b0:0000002300000000
#020380:13230000
#0213b0:0013003300000000
#021370:00000023
#0253b0:00132300
#027350:13230000
#027380:0013
#0273b0:00000023
#029380:1323
#0293b0:00330000
#0303b0:00130023
#030380:0033
#032370:13
#0323b0:0000003300000000
#034370:23
#032321:13
#032361:0000003300000000
#034321:23
#034321:00130023
#034351:0033
#037381:0000001400002400
#038351:00000013
#039321:23
#039381:00130023
#0393b1:0033
#040381:0013000000000000
#0403b1:0000002300000000
#042321:00000013
#043351:23
#0433b1:00130023
#043381:0033
#046381:00000013
#0473b1:23
#047351:00130023
#047321:0033
#048351:0013000000000000
#048321:0000002300000000
#0503b1:00000013
#051381:23
#051321:00130023
#051351:0033
#053381:0000000000130033
#0543b1:00230000
#0583a1:00000014
#058381:0000000000000054
#0593a1:24
#059321:00140000
#059351:0024
#060381:0013002300000000
#0603b1:00530000
#062321:00000014
#062341:0000000000000054
#063321:24
#063371:00140000
#0633a1:0024
#066321:00000014
#066341:0000000000000054
#067321:24
#0673a1:00140000
#067371:0024
#068351:0013002300000000
#068321:00530000
#0703a1:00000014
#070381:0000000000000054
#0713a1:24
#071351:00140000
#071321:0024
#073381:0000000000130033
#0743b1:0023
#073350:0000000000000013
#074320:0023
#0823b0:0000000000130033
#083370:0023
#084350:16
#089370:0000000000000022
