This file was generated by Ched 2.6.4.0.
#TITLE ""
#ARTIST ""
#DESIGNER ""
#DIFFICULTY 0
#PLAYLEVEL
#SONGID ""
#WAVE ""
#WAVEOFFSET 0
#JACKET ""
#REQUEST "ticks_per_beat 480"
#00002: 4
#BPM01: 165
#00008: 01
#TIL00: ""
#HISPEED 00
#MEASUREHS 00
#01414:0014
#0141a:24
#01612:14
#01618:0014
#0181a:14
#01814:0014
#02012:14
#02018:0014
#03018:0014
#03012:00000014
#03014:00140000
#0301a:14
#0301f:11
#04618:14140000
#04614:00001414
#0591a:14
#05916:00140000
#05912:0014
#06018:14
#06012:14
#0601a:0014
#06014:0014
#0751a:14
#07512:00000014
#07514:00140000
#07518:0014
#07510:41
#0761a:14
#07614:00140000
#07618:0014
#00212:0014
#00318:14
#00314:0014
#0221a:14
#02214:00140000
#02218:0014
#02212:00000014
#02210:41
#0251a:0014
#02518:14
#02514:00140000
#03114:00140000
#03112:00000014
#0311a:14
#03118:0014
#03818:2414
#03814:00140014
#0381f:21
#04218:00140014
#04214:1414
#05014:14140000
#05018:00001414
#05010:41
#04014:14
#04018:0014
#0401a:14
#04012:0014
#04114:14
#04118:00140000
#04112:0014
#0411a:00000014
#04418:14
#04414:0014
#04412:14
#0441a:0014
#0481a:14
#04818:0014
#04814:00140000
#04812:00000014
#04918:14
#04914:00140000
#0491a:0014
#0471a:14
#04716:00140000
#04712:0014
#05112:14
#05116:00140000
#0511a:0014
#05212:14
#0521a:00000014
#05218:00140000
#05214:0014
#05418:14
#05419:00340000
#0541a:0034
#05514:14
#05512:00343400
#0561a:14
#05618:00343400
#05712:14
#05713:0000003400000000
#06312:14
#06316:00140000
#0631a:0014
#0641a:14
#06414:14
#06418:0014
#06412:0014
#0671a:1414
#06714:00140000
#07012:14240000
#0701a:00001424
#07112:1414
#07118:00140000
#07218:14
#0721a:0014
#07212:14
#07214:0014
#0321a:0000001400000000
#03218:00000000000000000000000000000014
#06112:14
#06118:00140000
#06114:0014
#0611a:00000014
#07318:14
#07314:00140000
#0731a:0014
#0041a:14
#00412:0014
#00518:14
#00514:0014
#01712:1414
#01718:00140000
#02612:14
#02618:00140000
#02614:0014
#0261a:00000014
#02912:0014
#02914:14
#02918:00140000
#0061a:1414
#00712:1414
#00818:1414
#00914:14
#0151a:1414
#01514:00140000
#01918:14
#01912:00140000
#0191a:0014
#02114:14
#0211a:00140000
#02112:0014
#07712:14
#07714:0000341434000000
#07818:14
#0781a:0000341434000000
#08318:1616
#08312:00160016
#07912:14
#0791a:00000014
#07918:00140000
#07914:0014
#08012:14
#08018:00140000
#08014:0014
#0811a:14
#08118:0000341434000000
#08214:14
#08212:0000341434000000
#06514:1414
#0651a:1414
#06518:00140000
#06512:00140000
#03414:0014
#0341a:00000014
#03418:00140000
#03412:14
#03518:00140000
#0351a:00000014
#03512:14
#03514:0014
#0581a:2414
#05814:00140014
#06212:2414
#06218:00140014
#0661a:14140000
#06612:00001414
#06610:41
#06814:14
#0681a:14
#06812:0014
#06818:0014
#06914:14
#06918:00140000
#06912:0014
#0691a:00000014
#05313:24
#05319:24
#00119:34
#0101a:00343400
#01010:41
#01112:00343400
#0121a:00343400
#03910:41
#0565a:64
#05554:64
#05752:54
#05458:54
#0325a:0000005400000000
#03258:00000000000000000000000000000024
#02952:0014
#0255a:0014
#05952:0014
#0635a:0014
#07658:0014
#00954:14
#07752:54
#07754:0000002400000000
#07858:54
#0785a:0000002400000000
#0675a:0014
#07152:0014
#08054:0014
#0815a:64
#08158:0000002400000000
#08254:64
#08252:0000002400000000
#06554:6464
#0655a:6464
#06552:00640000
#06558:00640000
#000390:14
#001390:34
#002380:26
#010380:14
#0103a0:00343424
#011340:14
#011320:00343424
#012380:14
#0123a0:00343424
#013340:14
#013320:0024
#0233a0:14000024
#023380:00343400
#024340:14000024
#024320:00343400
#027320:14000024
#027340:00343400
#028380:14000024
#0283a0:00343400
#0323a0:1400003400000000
#032380:00000000000000000000000000000054
#0333a0:0024
#036320:1434000034340034
#037320:0034342400000000
#039380:1424
#0393a0:00340000
#043340:1424
#043320:00340000
#045320:1434
#045340:00340024
#045381:1434
#0453a1:00340024
#054381:14
#054391:00340000
#0543a1:00003424
#055341:14
#055321:00343424
#0563a1:14
#056381:00343424
#057321:14
#057331:0000003400000000
#057341:00000024
#0653a1:1434
#065381:00340024
#065340:1434
#065320:00340024
#073320:0000000000001434
#074320:00000024
#077320:14000024
#077340:0000345434000000
#078380:14000024
#0783a0:0000345434000000
#0813a0:14000024
#081380:0000345434000000
#082340:14000024
#082320:0000345434000000
#084380:16
#089380:00360000
#089390:0000000000000024
