This file was generated by Ched 2.6.4.0.
#TITLE ""
#ARTIST ""
#DESIGNER ""
#DIFFICULTY 0
#PLAYLEVEL
#SONGID ""
#WAVE ""
#WAVEOFFSET 0
#JACKET ""
#REQUEST "ticks_per_beat 480"
#00002: 4
#BPM01: 102
#00008: 01
#TIL00: ""
#HISPEED 00
#MEASUREHS 00
#00019:14
#00119:14
#00213:14
#00313:14
#0041a:14
#00410:41
#00512:14
#00618:14
#00714:14
#00818:14
#00918:14
#01014:14
#01114:14
#0121a:14
#01210:41
#0131a:14
#01412:14
#01512:14
#01812:14
#0191a:14
#0221a:14
#02312:14
#02412:0016
#02418:26
#02518:16
#02512:0016
#02818:1616
#02810:41
#02912:1616
#03218:14
#0321f:11
#03314:14
#0341a:14
#03512:14
#03618:14
#03714:14
#0381a:14
#03913:14
#03919:14
#04012:0016
#04018:26
#0401f:21
#04010:00000041
#04212:1616
#04412:16
#04418:0016
#04618:1616
#05012:14
#0501a:0014
#05114:14
#05118:0014
#04318:1616
#04818:26
#04810:41
#04712:26
#02010:41
#016380:14
#017380:24
#020340:14
#021340:24
#026380:1626
#027320:1626
#030380:1626
#031320:1626
#041380:1626
#045320:1626
#048380:16
#049380:0026
#052330:140034
#053330:000000000000000000340000000000000000000000003400
#054330:0034
#055330:0000000000340000
#057330:0024
