This file was generated by Ched 2.6.4.0.
#TITLE ""
#ARTIST ""
#DESIGNER ""
#DIFFICULTY 0
#PLAYLEVEL
#SONGID ""
#WAVE ""
#WAVEOFFSET 0
#JACKET ""
#REQUEST "ticks_per_beat 480"
#00002: 4
#BPM01: 102
#00008: 01
#TIL00: ""
#HISPEED 00
#MEASUREHS 00
#05119:00000000000000000000000000000012
#0511b:130000000000000000000013000000000000130000000000
#05115:000000000000000013000000000000000000000000120000
#05112:000000130000000000000013000000000000000000000000
#05116:13
#05118:000000000013000000000000000000000000000000000000
#05214:001200
#05216:000000000000001200000000
#0521a:00000012
#05218:0012
#05215:12
#05215:22
#05313:12
#0531b:001200000000
#05318:000000000000000000000000000000000000120000000000000000000000000000000000000000000000001200000000
#0531a:00000000000000000012000000000000
#05314:000012
#05316:000000000000000000000000000000000012000000000000000000000000000000000000000000000000000000000000
#05413:000000000000000000000000000000000000000000000000000000000000000000000000000000000000000000000000000000000000000000000000000000000012000000000000000000000000000000000000000000000000000000000000
#05415:00000000000000000000000000120000
#05417:000000000000000000000000000000000000000000000000000000000000000000000000000000000000000000000000000000000000000000000000000000000000000000000000000000000000000000000000000000000000001200000000
#0541a:0012
#05418:000000000000000000000000000000000012000000000000000000000000000000000000000000000000000000000000
#05416:000000000000000000000000000000000000000000000000000000000000000000000000000000000012000000000000000000000000000000000000000000000000000000000000000000000000000000000000000000000000000000000000
#05519:001200000000000000000000
#0551b:0000000000000012000000000000000000000000000000000000000000000000
#05512:0000000000120000
#0551c:0000000000120000
#0001b:0000000000000013
#00012:000000000000000000000013000000000000000000000013
#00018:001300000000001300000000
#00015:13
#00418:230000000000000000000013000013000000000000000000
#0041b:00130000
#00415:0000131300000000
#00412:230000000000001300000000
#00410:41
#00518:13
#00516:0013000000130000
#0051b:000000000013000000000000000000000000000000000000
#00512:130000000000000013000000000000000000000000130000
#00514:00000013
#00517:000000000000000000000013000000000000000000000000
#00815:000000000013000000000000000013000000000000000000
#00818:000000000000130000000013000000000000000000000000
#00812:231300
#0081b:000000000000000000000000000000000013000000000000
#00817:23
#01518:1300001300000013
#01512:000000000000000000000013000000000000000013000000
#01515:000000130000000000000000000000000000000000000013
#0151b:000000000013000000000000000000000000130000000000
#01615:0013000000000013
#01618:000000000013000000000000000000000000000000000013
#01612:001300
#01616:00000013
#01617:0000001300000000
#0161b:000000000013
#0231b:130000000000000000000013000000000000000000000000
#02312:000000130000000000000013000000000000000000000000
#02318:00130000
#02315:001300
#0251b:000000000000000000000000000000003313000000000000000000000000000000000000130000000000000000000000
#02518:0000000000000013
#02515:000000000013
#02517:00130000
#02512:0000130000131300
#02516:000000000000000000000000000000003313000000000000000000000000000000000000000000000000000000000000
#02717:0013000000000000
#02712:00130000
#0271b:000000000000000013000013000000000000000000000000
#02716:000000000000000000000013000000000000000000000000
#0301b:0013000000001300
#03015:0000130000000013
#03018:001300
#03017:000000000000000000000013000000000000000000000000
#03019:0000000000130000
#03012:0013000000000000
#03118:13
#03112:000000130000000000000013000000000000000000000000
#0311b:00130000
#03115:001300
#03117:000000000000000000000013000000000000000000000000
#03218:0012
#03212:120000000000320032000000000000000000320032000012
#03216:000000000000000000000012000000000000000000000000
#0321f:11
#0321c:22
#0331a:12
#0331c:0012
#03316:000000000000000000000012000000000000000000000000
#03312:000000000000320032000000000000320000320032320000
#03416:0012
#0341c:120000000000320032000000000000000000320032000012
#03418:000000000000000000000012000000000000000000000000
#03514:12
#03512:0012
#03518:000000000000000000000012000000000000000000000000
#0351c:000000000000320032000000000000320000320032320000
#01912:000000000000000013000000000000000000000000130000
#01918:000000000013000000000000000000000000000000000000
#01915:000000130000000000000000000000000000000000000013
#0191b:130000000013
#01917:000000000000000000000013000000000000000000000000
#01916:00000013
#01812:000000000013000000000000000000000000000000130000
#01814:00000013
#01815:0013000000000000
#0181b:13
#01819:00000013
#01817:0000000000000013
#01816:0000000000130000
#01818:001300
#02212:000000130013000000000000000000000000000013000000
#0221b:000000000000000013000000000000130013000000000000
#02217:000000000000000000000013000000000000000000130000
#02216:000000000000000000130000000000000000000000000013
#02116:000000000000000000000000000000000000000000000013
#02117:0000000000000013
#02112:000000000013000000000000000000000000130013000000
#0211b:0013000000000000
#02115:001300
#02118:0000001300000000
#0291b:000000130000000000000013000000000000000000000000
#02912:0013000000000013
#02918:00130000
#02915:001300
#01118:130000000000001300000000
#01115:0013000000130000
#0111b:000000000013000000000000000000000000000000000000
#01116:001400
#01112:000000000000000000000013000000000000000000000000
#0471b:130000130013
#04718:0013001300130000
#04715:130000000000000000000000130000000013000000000000
#04712:000000130000000000130000000000000000000000000013
#00615:130000000000000000000013000013000000000000000000
#0061b:130000000000001300000000
#00612:00130000
#00618:0000131300000000
#01015:000000000013000000000013000000000000000000000000
#0101b:00130000
#01012:000000000000000013000000000000000000000000130000
#01018:000000000000001300000000
#02012:000000130000000000000000000000000000000013000000
#0201b:000000000013000000000000000000000000130000130000
#02018:000000000000000013000000000000000000000000000013
#02015:0000001300000000
#02010:41
#02417:000000000000000000000000130000000000000000000000000000000000000000000000000000003313000000000000
#0241b:000000000000000000000000000000003313000000000000000000000000000000000000130000000000000000000000
#02412:240000000000000000000000130000000000000000000000000000000000000000000000000000003313000000000000
#02416:000000000000000000000000000000003313000000000000000000000000000000000000130000000000000000000000
#0241a:24
#02612:140000000000000000000013000000000000000013000000
#0261a:14
#0261b:000000000000000013000000000000000000000000000013
#02617:000000000000000000131300
#02616:000000131300000000000000
#00215:13
#00212:00130000
#00218:000000000000000000000013000000000000000000130000
#0021b:00000013
#0121b:230000000013000000000000000013000000000000000000
#01215:00130000
#01218:001300
#01212:230000000000000000000013000000000000000000000000
#01216:000000000000000000000000000000000013000000000000
#01210:41
#01415:000000000013000000000000000013000000000000000000
#0141b:000000000000130000000013000000000000000000000000
#01412:000000000000000013000000000000000000000000130000
#04212:140000000000000000000013000000000000130013000000
#0421a:14
#0421b:000000000000130013000000000000000000000000000013
#04216:000000131300000000000000
#04217:000000000000000000131300
#04312:000000000000130000000000000000000000000000000000000000000013000000000000000000000000000000000000
#04318:00130000
#04315:001300
#04316:000000000000000000000013000000000000000000000000
#0431b:000000000000000000000013000000000000000000000000
#04317:000000000000000000000000000000000000000000000000000000000013000000000000000000000000000000000000
#0451b:0013000000000000
#04514:00130000
#04519:001300
#04517:0000000000000013
#04516:000000130000000000000013000000000000000000000000
#04615:001300
#04616:000000000000000000000013000000000000000000000000
#04614:0000000000130000
#04612:0013000000001300
#04618:0000130000000013
#0461b:0013000000000000
#04818:000000000000000000000013000000000000000000000000
#0481b:000000130000001300000000
#04812:000000000000130000130000000013000000000000000000
#04816:24
#04810:41
#0501b:000000000000130000130000000013000000000000000000
#05012:000000130000001300000000
#05015:000000000000000000000013000000000000000000000000
#05016:14
#04917:13
#0491b:0013000000000000
#04915:000000000013000000000000000000000000000000000000
#04918:001300
#04916:0000000000130000
#04914:00000013
#04912:130000000000000000000013000000000000000000130000
#00712:000000000013000000000013000000000000130000000000
#00716:0000000000130013
#0071b:130000001300001300001300
#00715:13
#00717:0013000000000000
#00315:0000000000000013
#0031b:0013000000000013
#00318:00000000001300000000003300000000
#00312:00000000000000130000000000000000
#0031a:000000000000000000000000000000000000000000000000000000000000003300000000000000000000000000000000
#00319:000033
#00317:000000000000000000000000000000000033000000000000
#00316:000000000000000000000000000000000000000000000000000000000000000000000033000000000000000000000000
#00918:000000000013000000000000000013000000000000000000
#00915:000000000000130000000013000000000000000000000000
#0091b:001300
#00912:000000000000000000000000000000000013000000000000
#01312:000000000013000000000000000013000000000000000000
#01318:00130000
#01315:001300
#0131b:000000000000000000000013000000000000000000000000
#01317:000000000000000000000000000000000013000000000000
#01718:0013000000000013
#01715:000000000013000000000000000000000000000000000013
#0171b:001300
#01717:00000013
#01716:0000001300000000
#01712:000000000013
#03618:000000120000000000001200
#03616:000000001200000000120000
#03718:000000120000000000001200
#03716:000000001200000000120000
#03714:0000000000120012
#03816:000000120000000000001200
#03818:000000001200000000120000
#0381a:000000000000000000000000000000000000000000000012
#04012:240000131300000000130000
#0401b:000000130000000000131300
#04017:000000000000000000000000000000000013000000000000000000000000000000000000000000000000000000000000
#04016:000000000000000000000000000000000000000000000000000000000000000000000000000000000013000000000000
#0401a:24
#0401f:21
#04010:00000041
#04112:000000131300000000130000
#0411b:00130000
#04117:000000000000000000000000000000000013000000000000000000000000130000000000000000000000000000000000
#04115:0000000000000013
#04118:000000000013
#04116:000000000000000000000013000000000000000000000000
#0281b:000000131300000000000000
#02818:000000000000000000000013000000000000000000000000
#02816:001300
#02812:240000000000000000131300
#02815:000000000000000000000000000000000000000000000013
#02817:000000000013
#0281a:24
#02810:41
#04416:000000000000130013000000000000000000000000000013
#04417:000000000000000000000013000000000000130013000000
#0441b:000000131300000000000000
#04412:240000000000000000131300
#0441a:24
#00112:0000000000000013
#0011b:000000000000000000000013000000000000000000000000
#00115:001300000000001300000000
#00118:13
#03916:24
#0085b:000000000000000000000000000000000063000000000000
#00857:13
#02352:000000000000000000000053000000000000000000000000
#0235b:000000000000000000000063000000000000000000000000
#02355:00000013
#02358:00000013
#0275b:000000000000000000000063000000000000000000000000
#02756:000000000000000000000063000000000000000000000000
#03157:000000000000000000000063000000000000000000000000
#03152:000000000000000000000063000000000000000000000000
#05552:0000000000520000
#0555c:0000000000520000
#0185b:63
#01852:000000000053000000000000000000000000000000000000
#0295b:000000000000000000000063000000000000000000000000
#01158:000000000000005300000000
#01155:0000000000530000
#04758:0013000000000000
#04755:13
#01657:0000006300000000
#01957:000000000000000000000063000000000000000000000000
#0205b:00000013
#02055:0000005300000000
#02457:000000000000000000000000530000000000000000003300000000000000000000000000000000000023000000000000
#0245b:000000000000000000000000000000000023000000000000000000000000000000000000630000000000000000004300
#02452:000000000000000000000000530000000000000000003300000000000000000000000000000000000023000000000000
#02456:000000000000000000000000000000000023000000000000000000000000000000000000630000000000000000004300
#02152:00000013
#02158:0000006300000000
#01256:000000000000000000000000000000000053000000000000
#01252:13
#0125b:13
#01552:000000000000000000000063000000000000000000000000
#03252:520000000000000000000000000000000000000000000052
#03256:000000000000000000000022000000000000000000000000
#03356:000000000000000000000022000000000000000000000000
#04356:000000000000000000000063000000000000430000000000
#04352:000000000000000000000000000000000000000000000000000000000023000000000000000000000000000000000000
#0435b:000000000000000000000063000000000000430000000000
#04357:000000000000000000000000000000000000000000000000000000000023000000000000000000000000000000000000
#0485b:000000000000006300000000
#04852:000000000000005300000000
#04855:00000013
#04858:0000000000000013
#0505b:000000000000006300000000
#05052:000000000000005300000000
#05058:00000013
#05055:0000000000000013
#00557:000000000000000000000053000000000000000000000000
#00458:000000000000005300000000
#00452:000000000000005300000000
#00455:00000013
#0045b:0000000000000013
#00952:000000000000000000000000000000000053000000000000
#00957:13
#01357:000000000000000000000000000000000063000000000000
#01352:13
#01756:0000005300000000
#0265b:006300
#02652:000000000053
#02657:000000000000000000000013000000000000000000000000
#02656:000000000000000000000000000000000000000000000013
#0345c:620000000000000000000000000000000000000000000062
#03458:000000000000000000000022000000000000000000000000
#03558:000000000000000000000022000000000000000000000000
#05152:000000000000000000000053000000000000000000000000
#0405b:000000000000630000000043000000000000000023000000
#04057:000000000000000000000000000000000023000000000000000000000000000000000000000000000000000000003300
#04052:000000000000000023000000000000000000530000000033
#04056:000000000000000000000000000000000000000000004300000000000000000000000000000000000023000000000000
#0415b:000000000000630000000043000000000000000000000000
#04157:000000000000000000000000000000000023000000000000000000000000000000000000000000000000000000000000
#04152:002300
#04156:000000000000000000000063000000000000000000000000
#0065b:000000000000006300000000
#00655:000000000000006300000000
#00658:00000013
#00652:0000000000000013
#02856:006300
#02857:000000000053
#02852:000000000000000000000013000000000000000000000000
#0285b:000000000000000000000000000000000000000000000013
#04252:000000000000000000000013000000000000000053000000
#0425b:000000000000000063000000000000000000000000000013
#04257:000000000000000000000013000000000000000000000000
#04256:000000000000000000000000000000000000000000000013
#04457:000000000000000000000013000000000000000053000000
#04456:000000000000000063000000000000000000000000000013
#04452:000000000000000000000013000000000000000000000000
#0445b:000000000000000000000000000000000000000000000013
#04556:000000000000000000000063000000000000000000000000
#02557:00530000
#0255b:000000000000000000000000000000000023000000000000000000000000000000000000000000000000000000000000
#02552:000000000000530000000033000000000000000000000000
#02556:000000000000000000000000000000000023000000000000000000000000000000000000000000000000000000000000
#01056:13
#0145b:13
#03956:14
#0003b0:000000000000130000000023000000000000000000000000
#000350:0000000000001323
#001320:000000000000130000000023000000000000000000000000
#001380:0000000000001323
#002380:001300230000000000000000
#002350:000000000000001300230000
#003320:1323000000000000
#003350:00000013002300000000000000000000
#0033b0:0000000000130000
#0033a0:000000000000000000000000000000000000000000000000000000000000003300000000000000000000000000000000
#003390:000033
#003380:00000000000000000000003300000000
#003370:000000000000000000000000000000000033000000000000
#003360:000000000000000000000000000000000000000000000000000000000000000000000033230000000000000000000000
#004320:000000000000001300000000
#004350:00000023
#004381:000000000000001300000000
#0043b1:0000000000005323
#005371:000000000000000000000013000000000000000000000000
#0053b1:0000000000000023
#0063b1:000000000000001300000000
#006381:00000023
#006350:000000000000001300000000
#006320:0000000000005323
#0083b0:000000000000000000000000000000000013000000000000
#009370:23
#009320:000000000000000000000000000000000013000000000000
#010360:23
#0103b0:000000000000000000000000000000000013000000230000
#011380:000000000000001300000000
#0123b0:23
#011351:0000000000130000
#012321:23
#012361:000000000000000000000000000000000013000000000000
#013321:23
#013371:000000000000000000000000000000000013000000000000
#0143b1:23
#014381:000000000000000000000000000000000013000000230000
#015321:000000000000000000000013000000000000000000000000
#015361:00000023
#0163b1:1323000000000000
#016371:0000001300000000
#0163b1:00000023
#017321:1323000000000000
#017361:0000001300000000
#017321:00000023
#0183b1:13
#018381:0023000000000000
#018321:000000000013000000000000000000000000000000000000
#018351:002300
#0183b1:000000000000000000000013000000230000000000000000
#019371:000000000000000000000013000000000000000000000000
#0193b1:00000023
#020381:1323000000000000
#020351:0000001300000000
#020321:00000023
#021351:1323000000000000
#021381:0000001300000000
#0213b1:00000023
#0223b1:130000000023000000000000000000000000000000000000
#022321:000000000000000000000000130000000023000000000000
#023321:000000000000000000000013000000000000000000000000
#023351:0000000000532300
#0233b0:000000000000000000000013000000000000000000000000
#023380:0000000000532300
#024370:000000000000130000000023000000000000000000000000
#0243b0:000000000000000000000000000000003353000000000000000000000000000000000000000000000000000000000000
#024321:000000000000130000000023000000000000000000000000
#024361:000000000000000000000000000000003353000000000000000000000000000000000000000000000000000000000000
#024361:000000000000000000000000000000000000130000000023
#024321:000000000000000000000000000000000000000000000000000000000000000000000000000000003353000000000000
#0243b0:000000000000000000000000000000000000130000000023
#024370:000000000000000000000000000000000000000000000000000000000000000000000000000000003353000000000000
#025370:000000000000130000000033000000230000000000000000
#0253b0:000000000000000000000000000000003353000000000000000000000000000000000000000000000000000000000000
#025321:000000000000130000000023000000000000000000000000
#025361:000000000000000000000000000000003353000000000000000000000000000000000000000000000000000000000000
#0263b0:000000133300000000000000
#026370:000000000000000000000023000000000000000000000000
#026320:000000000000000000133300
#026360:000000000000000000000000000000000000000000000023
#027360:000000000000000000000013000000000000000000000000
#027320:00000023
#0273b1:000000000000000000000013000000000000000000000000
#027371:00000023
#028361:000000133300000000000000
#028321:000000000000000000000023000000000000000000000000
#028371:000000000000000000133300
#0283b1:000000000000000000000000000000000000000000000023
#0293b1:000000000000000000000013000000000000000000000000
#029371:0000000000230000
#029320:0000000000132300
#029371:0000000000001323
#030321:000000000000000000000013000000000000230000000000
#031321:000000000000000000000013000000000000000000000000
#031361:00000023
#031370:000000000000000000000013000000000000000000000000
#0313b0:00000023
#032320:120000000000320032000000000000000000320032000032
#032360:000000000000000000000032000000000000000000000000
#033320:000000000000320032000000000000320000320032320000
#033360:000000000000000000000032000000000000000000000000
#034320:22
#0343c1:120000000000320032000000000000000000320032000032
#034381:000000000000000000000032000000000000000000000000
#0353c1:000000000000320032000000000000320000320032320000
#035381:000000000000000000000032000000000000000000000000
#0363c1:22
#036360:12220000
#0363a0:000000000000000000000012000000220000000000000000
#036340:000000000000000000000000000000000000000000000012
#037340:0022000000000000
#0373a0:000000000000000000000012000000220000000000000000
#038380:12220000
#038340:000000000000000000000012000000220000000000000000
#0403b0:000000000000130000000023000000000000000000000000
#040370:000000000000000000000000000000000053000000000000000000000000000000000000000000000000000000000000
#040321:001300
#040361:000000000000000000000023000000000000000000000000
#040321:000000000000000000000000000000000000130000000023
#040361:000000000000000000000000000000000000000000000000000000000000000000000000000000000053000000000000
#0403b0:000000000013
#040370:000000000000000000000000000000000000000000000023
#0413b0:000000000000130000000023000000000000000000000000
#041370:000000000000000000000000000000000053000000000000000000000000000000000000000000000000000000000000
#041321:000000000000000013000000000000230000000000000000
#041361:000000000000000000000033000000000000000000000000
#0423b1:001300
#042371:000000000000000000000023000000000000000000000000
#042321:000000000013
#042361:000000000000000000000000000000000000000000000023
#043361:000000000000000000000013000000000000230000000000
#043321:000000000000000000000000000000000000000000000000000000000053000000000000000000000000000000000000
#0433b0:000000000000000000000013000000000000230000000000
#043370:000000000000000000000000000000000000000000000000000000000053000000000000000000000000000000000000
#044360:001300
#044320:000000000000000000000023000000000000000000000000
#044370:000000000013
#0443b0:000000000000000000000000000000000000000000000023
#045360:000000000000000000000013000000000000000000000000
#045320:0000000000230000
#0453b1:0000000000132300
#045320:0000000000001323
#0463b0:000000000000000000000013000000000000000000000000
#046370:00000023
#048320:000000000000001300000000
#048350:00000023
#0483b1:000000000000001300000000
#048381:0000000000005323
#0493b1:000000000000000000000013000000330000000000000000
#049391:00000033
#049371:0000000000000023
#0503b1:000000000000001300000000
#050381:00000023
#050320:000000000000001300000000
#050350:0000000000005323
#051320:000000000000000000000013000000000000000000000000
#051360:00000023
#055320:0000000000120000
#057360:0022
#0553c1:0000000000120000
#057381:0022
