This file was generated by Ched 2.6.4.0.
#TITLE ""
#ARTIST ""
#DESIGNER ""
#DIFFICULTY 0
#PLAYLEVEL
#SONGID ""
#WAVE ""
#WAVEOFFSET 0
#JACKET ""
#REQUEST "ticks_per_beat 480"
#00002: 4
#BPM01: 102
#00008: 01
#TIL00: ""
#HISPEED 00
#MEASUREHS 00
#05216:000000001200001200000000
#05218:2212
#0521a:00000012
#00418:000000000000000000000013000000000000000000000000
#0041b:23130000
#00415:0000001300003300
#00412:230000000000001300000000
#00410:41
#00515:0013000000000000
#00518:000000000013000000000013000000000000000000000000
#00512:001300
#0051b:13
#0071a:0000000000140000
#00716:00000014
#00712:1300000000000014
#00718:0013000000000000
#00715:000000000013000000000013000000000000000000000000
#0071b:001300
#0081b:00130000
#00812:230000000000000000000013000000000000000000000000
#00815:000000000000001300000000
#00818:23
#01518:0000001300000013
#01515:0013
#01512:13130000
#0151b:0013000000000000
#0161b:000000000033000033130000000000000000000000000000
#01618:13
#01615:0000000000000013
#0161a:0033000000000000
#02518:0000000000130013
#02515:000000000000000000000000000000003313000000000000000000000000000000000000130000000000000000000000
#02512:00130000
#02715:00130000
#02718:001300
#0271b:0013000000000000
#02712:000000000000000000000013000000000000000000000000
#0301b:0013000000000000
#03015:00130000
#03018:000000000000000013000000000000000000000000130000
#03112:130000000000000000000000000000000000000000000000000000000013000000000000000000000000000000000000
#0311b:0013000000000000
#03115:000000000000130000000013000000000000000000000000
#03118:001300
#01918:000000130000000013000000000000000000000000130000
#01915:000000000013000000000000000000000000000000000000
#01912:13
#01815:00000013
#0181b:000000331333000000000000000000130000000000000000
#01818:1300000000000013
#01812:000000000000000000000013000000000000000000000000
#02912:0013000000130000
#02918:00130013
#02915:000000000000000013000000000000000000000000130000
#0291b:000000000000000000000013000000000000000000130000
#0111b:13130000
#01112:0013000000130000
#01115:0000001300000000
#01118:0013
#04714:0013000000000000
#0471b:000000000000000000130000000000000000000000000013
#04712:000000000000000000000000130000000000000000000013
#04719:13
#04718:000000000000000000000000000000130000000013000000
#04715:000000000000000000000000000000000013000000000000
#0101b:00130000
#01012:000000000000000000000013000000000000000000000000
#01015:000000000000000000000000000013000000000000130000
#01018:000000000000000000000000000000000013000000000000
#02612:14000013
#0261a:14
#0261b:00130000
#02618:003300
#02615:000000000033
#02815:000000133300000000000000
#02818:000000000000000000133300
#0281a:24
#02812:24
#02810:41
#03715:00000012
#03719:00000012
#0381a:12
#03818:00000012
#03814:12
#05116:0000000000000012
#05115:0013000000000000
#05118:000000000013000000000000000000000000000000000000
#05112:001300
#0511b:13
#00018:13
#00015:00130000
#0001b:0013
#00012:00000013
#00118:13
#00115:00130000
#0011b:0013
#00112:00000013
#00218:13
#00212:00130013
#00215:0013
#0021b:00130013
#00318:13000013
#00312:00130000
#0031b:00130000
#00315:0013
#01218:00130000
#01212:000000000000000000000013000000000000000000000000
#0121b:000000000000001300000000
#01215:000000000000000000000000000000000013000000000000
#01216:23
#01210:41
#01412:00130000
#0141b:000000000000000000000013000000000000000000000000
#01418:000000000000000000000000000013000000000000130000
#01415:000000000000000000000000000000000013000000000000
#01718:0000000000000013
#01712:000000000033000033130000000000000000000000000000
#01715:13
#01713:0033000000000000
#02018:0000000000000013
#02015:000000000033000033130000000000000000000000000000
#02012:13
#02014:0033000000000000
#02010:41
#02115:0000000000000013
#02118:000000000033000033130000000000000000000000000000
#0211b:13
#02119:0033000000000000
#02218:14
#02212:00140000
#0221a:0014
#02214:00000014
#02315:13
#02312:00130000
#02318:13
#0231b:00130000
#02313:000000330000000033000000000000000000000000000000
#0231a:000000330000000033000000000000000000000000000000
#03219:00000012
#03218:00120000
#03214:2212
#0321f:11
#0321a:22
#03315:12
#0331a:00120000
#03316:0012
#0331b:00000012
#03415:00000012
#03416:00120000
#0341a:1212
#03414:12
#03519:12
#03514:00120000
#03518:0012
#03513:00000012
#03614:12
#0361a:12
#04012:240000000000000000000000130000000000000000000000000000000000000000000000000000003313000000000000
#04015:000000000000000000000000000000003313000000000000000000000000000000000000130000000000000000000000
#04018:000000000000000000000000130000000000000000000000000000000000000000000000000000003313000000000000
#0401b:000000000000000000000000000000003313000000000000000000000000000000000000130000000000000000000000
#0401a:24
#0401f:21
#04010:00000041
#04115:000000000000000000000000000000003313000000000000000000000000130000000000000000000000130000000000
#04118:00130013
#0411b:000000000000000000000000000000003313000000000000000000000000000000000000000000000000000000000000
#04112:00130000
#0421a:14
#04212:140000003300000000130000
#04215:000000130000000000003300
#0421b:000000130000000000003300
#04218:000000003300000000130000
#04612:0013000000000000
#04618:00130000
#04615:000000000000000013000000000000000000000000130000
#0451b:0013000000130000
#04515:00130013
#04518:000000000000000013000000000000000000000000130000
#04512:000000000000000000000013000000000000000000130000
#0491b:001300
#04915:000000000013000000000013000000000000000000000000
#04918:0013000000000000
#05012:130000000000001300000000
#05018:000000000000000000000013000000000000000000000000
#0501b:00130000
#05015:0000001300003300
#0061b:130000000000001300000000
#00615:000000000000000000000013000000000000000000000000
#00612:00130000
#00618:0000001300003300
#00912:00130000
#0091b:000000000000000000000013000000000000000000000000
#00918:000000000000001300000000
#01315:00130000
#0131b:000000000000000000000013000000000000000000000000
#01312:000000000000001300000000
#01318:000000000000000000000000000000000013000000000000
#02412:24130000
#02418:000000000000000000000000000000000000000000000000000000000000000000000000000000003313000000000000
#0241b:00000013
#02415:000000000000000000000000000000003313000000000000000000000000000000000000000000000000000000000000
#0241a:24
#05316:120012
#05318:000000000000000012000000000000000000000000000000000000120000000000000000000000000000000000000000
#05314:0000001200000000
#0531a:000000000000000000000000000000000000000000000000000000000000000000000000000000000000001200000000
#05414:000000000000000000000000000000000000000000000000000000000000000000000000000000000000000000000000000000000000000000000000000000000012000000000000000000000000000000000000000000000000000000000000
#05419:00000000000000000000000000120000
#05415:000000000000000000000000000000000000000000000000000000000000000000000000000000000000000000000000000000000000000000000000000000000000000000000000000000000000000000000000000000000000001200000000
#05416:000000000000000000000000000000000012000000000000000000000000000000000000000000000000000000000000
#05418:0012
#0551a:001200000000000000000000
#05516:0000000000000012000000000000000000000000000000000000000000000000
#04318:00130000
#04315:001300
#04312:0013000000000000
#0431b:000000000000000000000013000000000000000000000000
#04815:0013
#04818:0013
#04810:41
#0441b:000000133300000000000000
#04412:240000000000000000133300
#04415:000000133300000000000000
#04418:000000000000000000133300
#0441a:24
#0391b:23
#03912:23
#0165b:0000002300000000
#01658:63
#01858:63
#0185b:002300000000
#01152:0000000000530000
#04754:0013000000000000
#04759:13
#0475b:000000000000000000000000000000000000000000000063
#04752:000000000000000000000000000000000000000000000053
#01555:0063
#00452:000000000000005300000000
#01255:000000000000000000000000000000000053000000000000
#01256:13
#02355:63000013
#02352:00230000
#02358:53000013
#0235b:00230000
#04052:000000000000000000000000530000000000000000003300000000000000000000000000000000000023000000000000
#04055:000000000000000000000000000000000023000000000000000000000000000000000000630000000000000000004300
#04058:000000000000000000000000530000000000000000003300000000000000000000000000000000000023000000000000
#0405b:000000000000000000000000000000000023000000000000000000000000000000000000630000000000000000004300
#0065b:000000000000006300000000
#01358:000000000000000000000000000000000063000000000000
#01752:0000002300000000
#01755:53
#02055:0000002300000000
#02052:63000033
#02158:0000002300000000
#0215b:53000043
#02452:000000000000530000000033000000000000000000000000
#02458:000000000000000000000000000000000000000000000000000000000000000000000000000000000023000000000000
#0245b:000000000000000000000000000000000000630000000043
#02455:000000000000000000000000000000000023000000000000000000000000000000000000000000000000000000000000
#02555:000000000000000000000000000000000023000000000000000000000000000000000000000000000000000000000000
#02552:000000000000530000000033000000000000000000000000
#03155:000000000000000000000053000000000000000000000000
#03152:000000000000000000000000000000000000000000000000000000000023000000000000000000000000000000000000
#04158:000000000000530000000033000000000000000000000000
#0415b:000000000000000000000000000000000023000000000000000000000000000000000000000000000000000000000000
#04152:000000000000530000000033000000000000000000000000
#04155:000000000000000000000000000000000023000000000000000000000000000000000000000000000000000000000000
#05052:000000000000005300000000
#02752:000000000000000000000053000000000000000000000000
#0435b:000000000000000000000063000000000000000000000000
#04357:00000013
#04858:0023
#04855:0023
#0265b:00630000
#02658:000000000000000000000013000000000000000000000000
#02652:00000053
#02655:000000000000000000000000000000000000000000000013
#04255:000000000000630000000000000000000000000000000013
#04252:000000000000000000000013000000000000530000000000
#0425b:000000000000630000000000000000000000000000000013
#04258:000000000000000000000013000000000000530000000000
#02855:00230000
#02858:00000023
#02852:000000000000000000000033000000000000000000000000
#0285b:000000000000000000000000000000000000000000000043
#0445b:000000000000230000000000000000000000000000000043
#04452:000000000000000000000033000000000000230000000000
#04458:000000000000000000000033000000000000230000000000
#04455:000000000000230000000000000000000000000000000043
#0395b:13
#03952:13
#004320:000000000000001300000000
#004350:0000000000003323
#005350:0000000000130023
#005320:00000033
#0063b0:000000000000001300000000
#006380:0000000000003323
#008380:000000000000000000000000000000000013000000000000
#009380:23
#009350:000000000000000000000000000000000013000000000000
#010350:23
#011320:0000000000130000
#012360:23
#012350:000000000000000000000000000000000013000000000000
#013320:23
#013380:000000000000000000000000000000000013000000000000
#0143b0:23
#015350:0013
#015320:00000023
#016380:13000023
#0163a0:0033000000000000
#0163b0:000000000033000033330000000000000000000000000000
#017350:13000023
#017330:0033000000000000
#017320:000000000033000033330000000000000000000000000000
#018380:132300
#0183b0:000000335333000000000000000000000000000000000000
#019350:000000000000000000000013000000000000230000000000
#020320:13000023
#020340:0033000000000000
#020350:000000000033000033330000000000000000000000000000
#0213b0:13000023
#021390:0033000000000000
#021380:000000000033000033330000000000000000000000000000
#023350:130000000000000000000033000000000000230000000000
#023330:000000330000000033000000000000000000000000000000
#023320:00330000
#023381:130000000000000000000033000000000000230000000000
#0233a1:000000330000000033000000000000000000000000000000
#0233b1:00330000
#024321:000000000000130000000023000000000000000000000000
#024351:000000000000000000000000000000003353000000000000000000000000000000000000000000000000000000000000
#0243b1:000000000000000000000000000000000000130000000023
#024381:000000000000000000000000000000000000000000000000000000000000000000000000000000003353000000000000
#025321:000000000000130000000023000000000000000000000000
#025351:000000000000000000000000000000003353000000000000000000000000000000000000000000000000000000000000
#0263b1:00130000
#026381:000000000000000033000023000000000000000000000000
#026321:00000013
#026351:000000000000000000000000000000000000000033000023
#027321:000000000000000000000013000000000000000000000000
#027361:00000023
#028351:000000133300000000000000
#028321:000000000000000000000023000000000000000000000000
#028381:000000000000000000133300
#0283b1:000000000000000000000000000000000000000000000023
#030321:000000000000000000000013000000000000230000000000
#030351:0000000000330000
#031351:000000000000000000000013000000000000230000000000
#031321:000000000000000000000000000000000000000000000000000000000053000000000000000000000000000000000000
#036381:00122200
#036341:00000012
#037341:22
#0373a1:00122200
#038361:00122200
#040321:000000000000130000000023000000000000000000000000
#040351:000000000000000000000000000000003353000000000000000000000000000000000000000000000000000000000000
#040380:000000000000130000000023000000000000000000000000
#0403b0:000000000000000000000000000000003353000000000000000000000000000000000000000000000000000000000000
#040350:000000000000000000000000000000000000130000000023
#040320:000000000000000000000000000000000000000000000000000000000000000000000000000000003353000000000000
#0403b1:000000000000000000000000000000000000130000000023
#040381:000000000000000000000000000000000000000000000000000000000000000000000000000000003353000000000000
#041381:000000000000130000000023000000000000000000000000
#0413b1:000000000000000000000000000000003353000000000000000000000000000000000000000000000000000000000000
#041320:000000000000130000000023000000000000000000000000
#041350:000000000000000000000000000000003353000000000000000000000000000000000000000000000000000000000000
#042350:00130000
#042320:000000000000000033000023000000000000000000000000
#0423b1:00130000
#042381:000000000000000033000023000000000000000000000000
#042381:00000013
#0423b1:000000000000000000000000000000000000000033000023
#042320:00000013
#042350:000000000000000000000000000000000000000033000023
#0433b0:000000000000000000000013000000000000000000000000
#043370:00000023
#0443b0:000000133300000000000000
#044380:000000000000000000000023000000000000000000000000
#044351:000000133300000000000000
#044321:000000000000000000000023000000000000000000000000
#044321:000000000000000000133300
#044351:000000000000000000000000000000000000000000000023
#044380:000000000000000000133300
#0443b0:000000000000000000000000000000000000000000000023
#0463b0:000000000000000000000013000000000000230000000000
#046380:0000000000330000
#047320:000000000000000000000000000000000000000000000013
#048350:0053
#049320:23
#0473b1:000000000000000000000000000000000000000000000013
#048381:0053
#0493b1:23
#049381:0000000000130023
#0493b1:00000033
#050321:000000000000001300000000
#050351:0000000000003323
#051381:000000000000000000000013000000000000230000000000
#0553a1:0000000000120000
#0573a1:0022
