This file was generated by Ched 2.6.4.0.
#TITLE ""
#ARTIST ""
#DESIGNER ""
#DIFFICULTY 0
#PLAYLEVEL
#SONGID ""
#WAVE ""
#WAVEOFFSET 0
#JACKET ""
#REQUEST "ticks_per_beat 480"
#00002: 4
#BPM01: 102
#00008: 01
#TIL00: ""
#HISPEED 00
#MEASUREHS 00
#0511a:00000000000000000000000000000012
#05112:130000000013000000000000000000130000000000120000
#05115:000000000000000000000000000000000016000000000000
#05116:000000130000000000000013000000000000140000000000
#05118:0000000000000012
#05114:000000000000000000000000000000001300000000000000000000000000000000000000000000000000000000120000
#0511b:000000130000000000000013000000000000000000000000
#05117:130000000013000000000000000000000000000000000000
#05119:001300
#05419:0012
#05412:000000000000000000000000000000000000000000000000000000000000000000000000000000000000000000000000000000000000000000000000000000000012000000000000000000000000000000000000000000000000000000000000
#05414:00000000000000000000000000120000
#05416:000000000000000000000000000000000000000000000000000000000000000000000000000000000000000000000000000000000000000000000000000000000000000000000000000000000000000000000000000000000000001200000000
#05418:000000000000000000000000000000000000000000000000000000000000000000000000000000000000000000000000000000000000000000000000000000000012000000000000000000000000000000000000000000000000000000000000
#0541c:000000000000000000000000000000000000000000000000000000000000000000000000000000000000000000000000000000000000000000000000000000000000000000000000000000000000000000000000000000000000001200000000
#05417:000000000000000000000000000000000012000000000000000000000000000000000000000000000000000000000000
#05415:000000000000000000000000000000000000000000000000000000000000000000000000000000000012000000000000000000000000000000000000000000000000000000000000000000000000000000000000000000000000000000000000
#0551a:001200000000000000000000
#05518:0000000000000012000000000000000000000000120000000000000000000000
#05516:0000000000120000
#05512:0000000000000012000000000000000000000000000000000000000000000000
#0031b:13000000000000130000000000000000
#00315:000000000000130000000000000000000000000000130000000000000000000034000000000000000000000000000000
#00318:00000013000000000000000000000000
#00312:130000000000000000000000000000130000000000000000000000000000000000003434000000001300000000000000
#00317:000000000000000000000000000000000000000000000000000000000000003400000000000000000000130000000000
#00313:00000000000000000000003400000000
#0041a:000000000000000000000013000000000000000000000000
#00417:230000000000000000130000000013000000000000000000
#00412:230000000000000000000000000013000000000000130000
#00414:000000000000000000000013000000000000000000000000
#00416:00130000
#0041b:00130000
#00410:41
#00517:130000000000000000000013000000000000000000130000
#00516:000000130013000000000000000000130000000000000000
#0051b:000000000013000000000000000000130000000000000000
#00514:001300
#00512:130000000000000000000013000000000000000000000000
#00519:000000001300000000130000
#0071a:000000000000001400000000
#00716:1300000000140014
#00717:000000130013000000000000000000000000000000000000
#00712:000000000013000000000000000000000000000014000000
#00714:00000013
#0071b:13
#00719:00000013
#00816:000000000000000000001300130000000000000000001300000000000000000000000000000000000013000000000000
#0081b:230000000000000000000000130000000000000000001300000000000000000000000000000000000013000000000000
#00812:230000000000000013000000000000000013000000000000
#00814:000000000000001300000000
#00819:000000000000001300000000
#00817:000000000000000000000000000000000013000000000000
#01516:130000000013000000000000000000000000000000130000
#01512:000000130000000000130013000000000000000013130000
#0151b:130000000013000000000000000000000000000000000013
#01517:000000130000000000130013000000000000000000000000
#01616:230000130013000000000000000000000000130000000000
#01612:000000000000000013000000000000130000000000000013
#01617:000000000000000013000000000000130000000000130000
#0161b:000000000013000000000000000000000000000013130000
#02315:000000000000000013000016000000000000160000000000
#0231a:000000000000000000000000000014140000000000000000
#02312:000000000000000000000000000014140000000000000000
#0251b:00000000001300000000000000001300
#02518:000000130000000000000013000000000000000013000000
#02515:000000001300000000000000000000000013000000000000000000000000000000000000000000000000130000000000
#02512:00130013
#02517:000000000000000000000000000000130000001300000000000000000000000000000000000000000000000000000000
#02513:000000000000000000000000000000000000001300000000000000000000000000000000000000000000000000000000
#02516:000000133300000000000000
#02519:000000000000000000000000000000000013000000000000000000000000000000000000000000000000000000000000
#02514:000000000000000000000013000000000000000000000000
#0251a:003300
#02712:000000000000130000000013000000000000130000000000
#0271b:000000000000000013000013000000000000130000000000
#02716:000000130000130013000000000000000000000000000000
#02718:000000000000000000000000000013000000000000130000
#02715:000000000000000000000000000000130000000013000000
#03016:0013000000001313
#0301b:0013000000130013
#03012:130000000000000000000013000000000000000000001300000000000000000000000000130000000000000000000000
#03017:13
#03018:00130000
#03117:13
#03116:001300
#03112:000000130000000000000013000000000000000000000000
#03115:000000000000000000000000000013000000001300130000
#03118:000000000000000000000000000000130000130013000000
#0311b:000000000000000000000013000000000000000000000000
#0321c:2212
#0321a:00120012
#03212:1212
#03214:0000001200120012
#03216:00120012
#0321f:11
#0331c:1212
#0331a:00120012
#03312:1212
#03314:0012001200120012
#03316:00120012
#03614:00120012
#0361c:000000000000000012000012000000000000000000000000
#03616:001200
#0361a:00120012
#03617:000000120000000000000012000000000000000000000012
#03612:120000000000000000000000000000000000000012000012
#03618:000000000012
#01912:130000000013000013000000000013000000000000130000
#01916:000000130013000000000000000000000000000000000000
#0191b:000000000000000013000013000000000000130000000013
#01917:000000000000000000000013000000130000000000000000
#01918:000000000000000000000000000000000013000000000000
#01915:000000000013
#01812:000000130013000000000013000000000000000000000000
#0181b:1300000000130013
#01817:000000000013000000000013000000000000130000000000
#01716:000000000000000013000000000000130000000000000013
#01717:130000130013000000000000000000000000130000130000
#01712:000000000013000000000000000000000000000013130000
#0171b:000000000000000013000000000000130000000000000013
#02217:0000000000130013
#0221b:230000000013000013000000000000000000000000000013
#02216:000000130000000013130000000000000000000000000013
#02216:000000000000000000000000000000000000000000000013
#02212:000000000000000000000013130000000013000013130000
#0211b:000000130000000013130000000000130000000000000013
#02117:000000000013000000000000000000000000000013130000
#02112:130000000013000000000000000000000000000013000000
#02116:000000000000000013130000130000000000130000000000
#02118:13
#02912:000000130000000000000013000000000000000000130000
#02919:00000013
#02917:000000130000000000000013000000000000000000130000
#02914:00000013
#0291b:0000000000130000
#01117:13
#01118:000000000000000000000013000000130000000013000000
#0111b:000000130000000000000000000013000000130000130000
#01115:000000000013000000000000000013000000130000130000
#01112:000000000000000000000000000000130000000013000000
#0471b:000000000000000000130000000000000000000000000013
#04712:160000000000160000000000000000000000000000000000130000000000000000003434000000001300000000000000
#04717:000000000000000000000000000000000000000000000000130000000000003400000000000000001300000000000000
#04716:000000000000000000130000000000000000000000000013
#04718:1616000000000000
#04715:000034
#04713:00000000000000000000003400000000
#02616:130000130000000000000013000000000000130013000000
#0261b:130000001300000000130000
#02617:000000000000130013000000000000130000000000000013
#02612:000000130000130000000000000000000000000013000000
#0371a:00120012
#03716:000012000012
#03718:0000000000000012
#03714:00120012
#0371c:000000000000000012000012000000000000000000000000
#03717:000000000000000000000012000000000000000000000000
#03918:0000000000120012
#03914:000000000000001200001200
#03916:00000012
#0391a:24000012
#03915:24
#0001b:000000000000130000000000000013000000000000130000
#00016:000000000000001300000000
#00012:000013000000000000000013000000000000130000000000
#00017:00000013
#00015:130000000000000000000000000000000000000000000013
#00018:001300000000000000000000
#00613:000000000000000000000013000000000000000000000000
#00612:00130000
#00616:130000000000000000130000000013000000000000000000
#0061b:130000000000000000000000000013000000000000130000
#00617:00130000
#00619:000000000000000000000013000000000000000000000000
#0121b:000000000013130000000000000000000000001300000000
#01212:230000000000000000000013000000000013000000001300
#01216:000000000000000000000000000013000000001300000000
#01217:000000000000000013000000000000000013000000001300
#01214:000000000000000000000000000000000000000000000000000000000000000000000000000000000013000000000000
#01219:000000000000000000000000000000000000000000000000000000000000000000000000000000000013000000000000
#01218:23
#01210:41
#0141b:000000000013130000000000000000000000001300000000
#01412:000000000000000000000013000000000013000000000000
#01416:000000000000000000000000000013000000001300000000
#01417:000000000000000013000000000000000013000000000000
#02012:000000130000000013130000000000130000000000000013
#02016:000000000013000000000000000000000000000000000000
#02017:000000000000000013130000130000000000130000000000
#0201b:130000000013000000000000000000000000000000130000
#02018:000000000013
#02015:23
#02010:41
#02417:230000000000130000000000000000130000001300000000000000000000000000000000000000130000001300000000
#0241b:00001300001300000000000000130000
#02418:0000000000130000
#02415:000000000000000000000000000000000013000000000000000000001300000000000000000000000013000000000000
#02416:000000133300000000133300
#02419:000000000000000000000000000000000013000000000000000000000000000000000000000000000013000000000000
#02412:23130013
#02413:000000000000000000000000000000000000001300000000000000000000000000000000000000000000001300000000
#0241a:000033000033
#02816:230000130000000013000000000000000000130000000000
#02812:000000130000000013000000000000000000130000000000
#02817:000000130000000000001300
#0281b:230000130000000000001300
#02815:000000000000001300000000
#02818:0000000000130000
#02810:41
#0381a:000000000000000000000000120000000000000000000000000000000000000000000000143434343434003434343434
#03812:120000000000000012000012000000000000000000120000
#0381c:12
#03817:000000120000000000000012000000000000000000120000
#03818:001200
#03814:00120000
#03815:000000000000000000000000000000000000000000000000000000000000000000000000143434343434003434343434
#04812:00130000
#0481b:230000000000000000130000000013000000000000130000
#04816:230000000000001300000000
#04817:000000000000130000000013000000000000000000000000
#04810:41
#04916:130000000013000000000000000000000000000000000000
#04917:000000130000000000000013000000000000130000000000
#04919:001300
#0491b:130000000013000000000000000000130000000000130000
#04914:001300
#04912:000000130000000000000013000000000000000000000000
#05017:130000000000001300000000
#05012:130000000000000000130000000013000000000000130000
#0501b:00130000
#05016:000000000000130000000013000000000000000000000000
#00218:130000000000001300000000
#00215:000013000000000000000000000000000000000000130000
#00212:00130013
#0021b:001300130000000000130000
#00917:000000000000000000001300130000000000000000001300000000000000000000000000000000000013000000000000
#00912:000000000000000000000000130000000000000000001300000000000000000000000000000000000013000000000000
#0091b:000000000000000013000000000000000013000000000000
#00919:000000000000001300000000
#00914:000000000000001300000000
#00916:000000000000000000000000000000000013000000000000
#01016:000000000013130000000013000000000000000000000000
#0101b:000000000000130000000013000000000000000000000000
#01012:000000000000000013000000000000000013000000000000
#01014:000000000000001300000000
#01019:000000000000001300000000
#01017:000000000000000000000000000000000013000000000000
#01312:000000000013130000000000000000000000001300000000
#0131b:000000000000000000000013000000000013000000001300
#01317:000000000000000000000000000013000000001300000000
#01316:000000000000000013000000000000000013000000001300
#01319:000000000000000000000000000000000000000000000000000000000000000000000000000000000013000000000000
#01314:000000000000000000000000000000000000000000000000000000000000000000000000000000000013000000000000
#03412:0012
#03414:00120012
#0341c:1212
#0341a:0000001200120012
#03418:00120012
#03512:1212
#03514:00120012
#0351c:1212
#0351a:0012001200120012
#03518:00120012
#04112:000000000000000013000000000000000000000000130000
#04115:000000130000000000000013000000000000000013000000
#04118:000013000000000000000000000000000000000000130000
#04119:000000000000000000000000000000000000000000000000130000000000130000000013000000000000000000000000000000000000000000000000000000000000000000000000000000000000000000000000000000000000000000000000
#0411b:000000000000130000000000000013000000001300000000000000000000000000000000130000000000000000000000
#04117:001300
#04114:000000000000000000000000000000000000000000000000130000000000130000000013000000000000000000000000000000000000000000000000000000000000000000000000000000000000000000000000000000000000000000000000
#04116:000000000000000000000000000013000000001300000000000000000000000000000000000000000000000000000000
#0411a:000000000000000000000013000000000000000000000000
#0431b:000000130000130000000013000000000000000000130000
#04312:000000000000000013000000000000130000130000000000
#04317:000000000000130013000013000013000000000000000000
#04316:000000000000000000131300
#04612:0013000000000000
#0461b:13130000
#04616:130000000000000000000013000000000000000000001300000000000000000000000000000000000000000000000000
#04617:0013000000130000
#04618:000000000000000000131300
#04615:000000000000000000000000000000000000001300130000
#0451b:0013000000000000
#04516:0013000000130000
#04512:000000000000000000000013000000000000000000130000
#04517:000000000000000000000013000000000000000000130000
#04514:00000013
#04519:00000013
#0421b:130000000000130000000013000000000000000013000000
#04212:130000130000000013000000000000130000130000000013
#04216:00130000
#04217:0013000000001300
#0401b:230000000000130000000000000013000000001300000000000000000000130000000000000013000000001300000000
#04016:000000000000130000000000000013000000001300000000000000000000000000000000000013000000001300000000
#04015:0000000000130000
#04018:000000000000001300000000
#04019:000000000000000000000000000000000000000000000000130000000000130000000013000000000000000000000000000000000000000000000000000000000000000000000000130000000000130000000013000000000000000000000000
#04017:000013000013
#04014:000000000000000000000000000000000000000000000000130000000000130000000013000000000000000000000000000000000000000000000000000000000000000000000000130000000000130000000013000000000000000000000000
#04012:230013000013
#0401f:21
#04010:00000041
#04417:230000130000000013000000000000000000130000000013
#0441b:0013000000131300
#04418:000000000000001300000000
#04415:0000000000130000
#04412:23130000
#04416:000000000000130000000013000000000000000013000000
#00112:000000000000130000000000000013000000000000130000
#00118:13
#00115:001300000000000000000000
#0011b:000013000000000000000013000000000000130000000000
#00117:000000000000001300000000
#00116:00000013
#05612:00000000000000000012000000000000
#0561c:00000000000000000012000000000000
#05216:22
#00457:000000000000006300000000
#00452:130000000000006300000000
#0045b:0000130000000033
#00455:00000033
#01656:00000013
#01657:0000000000230000
#03056:0063000000000053
#03052:000000000000000000000023000000000000000000005300000000000000000000000000000000000000000000000000
#03157:53
#03152:0053000000000000
#05556:0000000000520000
#05558:0000000000620000
#01852:000000000023000000000053000000000000000000000000
#0185b:63
#01857:000000000023000000000000000000000000000000000000
#0225b:000000000043000000000000000000000033000000000000
#02252:000000000043000000000000000000000033000000000000
#02959:00000013
#02957:000000000000000000000013000000000000000000000000
#02952:000000000000000000000063000000000000000000130000
#02956:0000000000130000
#01557:000000000000000000000063000000000000000000000000
#01552:000000000000000000000063000000000000000000000000
#00652:0000130000000043
#00656:000000000000005300000000
#0065b:130000000000005300000000
#00658:00000043
#00857:000000000000000000000000000000000063000000000000
#0085b:130000000000000000000000000000000000000000000000000000000000000000000000000000000023000000000000
#00852:130000000000000000000000000000000063000000000000
#00856:000000000000000000000000000000000000000000000000000000000000000000000000000000000023000000000000
#01252:130000000000000000000000000000000063000000002300
#01256:000000000000000000000000000000000000002300000000
#01254:000000000000000000000000000000000000000000000000000000000000000000000000000000000063000000000000
#01257:000000000000000000000000000000000063000000002300
#0125b:000000000000000000000000000000000000002300000000
#01259:000000000000000000000000000000000000000000000000000000000000000000000000000000000063000000000000
#01258:13
#01456:000000000000000000000000000000000000002300000000
#01452:330000000000000000000000000000000053000000000000
#0145b:000000000000000000000000000000000000002300000000
#01457:330000000000000000000000000000000053000000000000
#02057:0000005300000000
#0205b:53000043
#02156:0000006300000000
#02152:63000033
#02652:000000000000530000000013000000000000000053000000
#0265b:000000000000000063000000000000000000630000000013
#02656:000000000000000000000053000000000000000053000000
#02657:000000000000000063000000000000000000000000000063
#02857:000000000000630000000033000000000000000063000000
#02856:000000000000000053000000000000000000530000000043
#02852:000000000000000053000000000000000000000000000043
#0285b:000000000000000000000033000000000000000063000000
#03657:000000000000000000000052000000000000000000000062
#0365c:000000000000000000000052000000000000000000000000
#03652:000000000000000000000000000000000000000000000062
#03857:000000000000000000000062000000000000000000220000
#03852:000000000000000000000062000000000000000000220000
#0385a:00000064
#03855:00000064
#04856:000000000000005300000000
#0485b:130000000000000000000000000053000000000000430000
#04858:00000043
#04852:0000000000000043
#0495b:0000000000430043
#04957:00000043
#04952:000000000000000000000063000000000000000000000000
#05052:130000000000000000000000000063000000000000330000
#05057:000000000000006300000000
#05055:00000033
#0505b:0000000000000033
#02456:00530053
#0245b:000000000000000000000000000000230000000000004300000000000000000000000000000000230000000000004300
#02459:000000000000000000000000000000000063000000000000000000000000000000000000000000000063000000000000
#02457:000000000000000000000000000000230000002300004300000000000000000000000000000000230000002300004300
#02452:00530053
#02455:000000000000000000000000000000000063000000000000000000000000000000000000000000000063000000000000
#02453:000000000000000000000000000000000000002300000000000000000000000000000000000000000000002300000000
#00956:000000000000000000000000000000000053000000000000
#00952:330000000000000000000000000000000000000000000000000000000000000000000000000000000023000000000000
#0095b:000000000000000000000000000000000053000000000000
#00957:330000000000000000000000000000000000000000000000000000000000000000000000000000000023000000000000
#0135b:430000000000000000000000000000000053000000002300
#01357:000000000000000000000000000000000000002300000000
#01359:000000000000000000000000000000000000000000000000000000000000000000000000000000000053000000000000
#01356:430000000000000000000000000000000053000000002300
#01352:000000000000000000000000000000000000002300000000
#01354:000000000000000000000000000000000000000000000000000000000000000000000000000000000053000000000000
#03757:000000000000000000000052000000000000000000000000
#0375c:000000000000000000000052000000000000000000000000
#0515b:000000000000000000000053000000000000000000000000
#03252:5222
#03254:0000005200620052
#03256:00220022
#03352:2222
#03354:0062005200620052
#03356:00220022
#0345c:6222
#0345a:0000006200520062
#03458:00220022
#0355c:2222
#0355a:0052006200520062
#03558:00220022
#02552:00530000
#02557:000000000000000000000000000000230000002300000000000000000000000000000000000000000000000000000000
#02555:000000000000000000000000000000000063000000000000000000000000000000000000000000000000000000000000
#02553:000000000000000000000000000000000000002300000000000000000000000000000000000000000000000000000000
#02556:00530000
#02559:000000000000000000000000000000000063000000000000000000000000000000000000000000000000000000000000
#0255b:00000000002300000000000000000000
#02558:000000000000000000000053000000000000000000000000
#02554:000000000000000000000053000000000000000000000000
#02355:00000016
#04652:0053000000000000
#04656:000000000000000000000023000000000000000000006300000000000000000000000000000000000000000000000000
#0425b:000000000000630000000063000000000000000063000000
#04252:000000000000000053000000000000000000530000000053
#04257:000000000000000000000033000000000000000000000000
#04256:000000000000000000000000000000000000000000000043
#0435b:0000000000000013
#04352:0000000000130000
#04752:36
#04758:0046000000000000
#04059:000000000000000000000000000000000000000000000000530000000000630000000063000000000000000000000000000000000000000000000000000000000000000000000000530000000000630000000063000000000000000000000000
#0405b:000000000000000000000000000023000000002300000000000000000000000000000000000023000000002300000000
#04057:000000000000000023000033000000000000000023000033
#04054:000000000000000000000000000000000000000000000000530000000000630000000063000000000000000000000000000000000000000000000000000000000000000000000000530000000000630000000063000000000000000000000000
#04056:000000000000000000000000000023000000002300000000000000000000000000000000000023000000002300000000
#04052:000000000000000023000033000000000000000023000033
#04159:000000000000000000000000000000000000000000000000530000000000630000000063000000000000000000000000000000000000000000000000000000000000000000000000000000000000000000000000000000000000000000000000
#0415b:000000000000000000000000000023000000002300000000000000000000000000000000000000000000000000000000
#04157:002300
#04154:000000000000000000000000000000000000000000000000530000000000630000000063000000000000000000000000000000000000000000000000000000000000000000000000000000000000000000000000000000000000000000000000
#04156:000000000000000000000000000023000000002300000000000000000000000000000000000000000000000000000000
#04152:002300
#04155:000000000000000000000063000000000000000000000000
#0415a:000000000000000000000063000000000000000000000000
#04456:000000000000530000000043000000000000000053000000
#04457:000000000000000063000000000000000000630000000033
#04452:000000000000000000000043000000000000000000000000
#0445b:000000000000000000000000000000000000000000000033
#04552:000000000000000000000013000000000000000000000000
#04557:000000000000000000000063000000000000000000130000
#04554:00000013
#0455b:0000000000130000
#00556:0000000000230000
#00552:000000000000000000000063000000000000000000000000
#0005b:00630000
#00152:00530000
#05652:00000000000000000022000000000000
#0565c:00000000000000000022000000000000
#01052:000000000000000000000000000000000053000000000000
#01057:000000000000000000000000000000000053000000000000
#01056:43
#0105b:43
#01757:00000013
#01756:0000000000230000
#0395a:44
#03955:44
#02755:0000000000130000
#02758:0000000000000013
#0003b0:00130000
#000370:000000000000000000000023000000000000000000000000
#001320:00130000
#001360:000000000000000000000023000000000000000000000000
#002350:000000000000000000000013000000000000000000000000
#002320:000000000000002300000000
#0033a0:0000000000140000
#003370:000000000000000000000000000000000000000000000000000000000000003400000000000000000000000000000000
#003350:000034
#003330:00000000000000000000003400000000
#003320:000000000000000000000000000000000000000000000000000000000000000000003434240000000000000000000000
#004320:000000000000001300000000
#004350:00000023
#004371:000000000000001300000000
#0043b1:0000000000000023
#005321:000000000000000000000013000000000000000000230000
#005361:0000000000530000
#0063b1:000000000000001300000000
#006381:00000023
#006360:000000000000001300000000
#006320:0000000000000023
#007360:001300
#007320:000000000000000000000023000000000000000000000000
#0073b1:001300
#007371:000000000000000000000023000000000000000000000000
#008371:000000000000000000000000000000000013000000000000
#0083b1:000000000000000000000000000000000000000000000000000000000000000000000000000000000053000000000000
#009371:23
#008320:000000000000000000000000000000000013000000000000
#008360:000000000000000000000000000000000000000000000000000000000000000000000000000000000053000000000000
#009320:23
#009360:000000000000000000000000000000000013000000000000
#009320:000000000000000000000000000000000000000000000000000000000000000000000000000000000053000000000000
#010360:23
#0093b1:000000000000000000000000000000000013000000000000
#009371:000000000000000000000000000000000000000000000000000000000000000000000000000000000053000000000000
#0103b1:23
#010371:000000000000000000000000000000000013000000000000
#0103b1:0000000000000023
#010320:000000000000000000000000000000000013000000000000
#010360:0000000000000023
#011320:1323000000000000
#011380:000000000013000023000000000000000000000000000000
#011351:000000000000000013000023000000000000000000000000
#012361:00130000
#012321:002300
#012371:000000000000000000000013000000000000000000000000
#0123b1:000000000000002300000000
#012321:000000000000000000000000000000000013000000005300
#012361:000000000000000000000000000000000000005300000000
#012341:000000000000000000000000000000000000000000000000000000000000000000000000000000000053000000000000
#013361:23
#012370:000000000000000000000000000000000013000000005300
#0123b0:000000000000000000000000000000000000005300000000
#012390:000000000000000000000000000000000000000000000000000000000000000000000000000000000053000000000000
#0133b0:23
#013370:00130000
#0133b0:002300
#013360:000000000000000000000013000000000000000000000000
#013320:000000000000002300000000
#0133b0:000000000000000000000000000000000013000000005300
#013370:000000000000000000000000000000000000005300000000
#013390:000000000000000000000000000000000000000000000000000000000000000000000000000000000053000000000000
#014370:23
#013361:000000000000000000000000000000000013000000005300
#013321:000000000000000000000000000000000000005300000000
#013341:000000000000000000000000000000000000000000000000000000000000000000000000000000000053000000000000
#014321:23
#014361:00130000
#014321:002300
#014371:000000000000000000000013000000000000000000000000
#0143b1:000000000000002300000000
#014321:000000000000000000000000000000000013000000230000
#014361:000000000000000000000000000000000000005300000000
#014370:000000000000000000000000000000000013000000230000
#0143b0:000000000000000000000000000000000000005300000000
#015370:000000000000000000000013000000000000000000000000
#0153b0:00000023
#015321:000000000000000000000013000000000000000000000000
#015361:00000023
#0163b1:1323000000000000
#016371:0000001300530000
#0163b1:00000023
#017321:1323000000000000
#017361:0000001300530000
#017321:00000023
#0183b1:132300
#018371:000000000033000000000000000000000000000000000000
#018320:000000000013000000000000000000000000000000000000
#018360:002300
#018320:000000000000000000000013000000000000330000000000
#018370:0000000000330023
#019370:13
#0193b0:0023000000000000
#019350:000000000000000000000000000000000013230000000000
#019380:000000000000000000000000000000000000000013230000
#0203b0:13
#020360:0023000000000000
#020370:0000001300330000
#0203b0:00003323
#020350:000000000000000000000000000000000000000013230000
#021320:13
#021370:0023000000000000
#021360:0000001300330000
#021320:00003323
#022360:13
#022320:000000530023000000000000000000000000000000000000
#022370:0013
#0223b0:000000000000000000000000000000530023000000000000
#0233b0:13
#023380:0023000000000000
#023351:0013000000000000
#023321:00230000
#023380:00130000
#0233b0:002300
#024360:00130000
#0243b0:000000000000000000000000000000530000000000002300000000000000000000000000000000000000000000000000
#0243a0:003300
#024390:000000000000000000000000000000000053000000000000000000000000000000000000000000000000000000000000
#024370:000000000000000000000000000000000000005300000000000000000000000000000000000000000000000000000000
#024321:00130000
#024371:000000000000000000000000000000530000000000002300000000000000000000000000000000000000000000000000
#024361:003300
#024351:000000000000000000000000000000000053000000000000000000000000000000000000000000000000000000000000
#024331:000000000000000000000000000000000000005300000000000000000000000000000000000000000000000000000000
#024361:00000013
#0243b1:000000000000000000000000000000000000000000000000000000000000000000000000000000530000000000002300
#0243a1:000000000033
#024391:000000000000000000000000000000000000000000000000000000000000000000000000000000000053000000000000
#024371:000000000000000000000000000000000000000000000000000000000000000000000000000000000000005300000000
#024320:00000013
#024370:000000000000000000000000000000000000000000000000000000000000000000000000000000530000000000002300
#024360:000000000033
#024350:000000000000000000000000000000000000000000000000000000000000000000000000000000000053000000000000
#024330:000000000000000000000000000000000000000000000000000000000000000000000000000000000000005300000000
#025320:00130000
#025370:00000000005300000000230000000000
#025360:003300
#025350:000000000000000000000000000000000053000000000000000000000000000000000000000000000000000000000000
#025330:000000000000000000000000000000000000005300000000000000000000000000000000000000000000000000000000
#025340:000000000000000000000033000000000000000000000000
#025361:00130000
#0253b1:00000000005300000000330023000000
#0253a1:003300
#025391:000000000000000000000000000000000053000000000000000000000000000000000000000000000000000000000000
#025371:000000000000000000000000000000000000005300000000000000000000000000000000000000000000000000000000
#025381:000000000000000000000033000000000000000000000000
#026321:000000000000130000000023000000000000000000000000
#026371:003300
#0263b0:000000000000000013000000000000230000000000000000
#026360:000000000000000000000033000000000000000000000000
#0263b0:000000000000000000000000000000000000130000000023
#026360:000000000033
#026321:000000000013
#026371:000000000000000000000000000000000000000000000033
#027321:0023000000000000
#028371:000000000000130000000023000000000000000000000000
#028321:003300
#028360:001300
#0283b0:000000000000000000000023000000000000000000000000
#028360:000000000000000000000000000000000000130000000023
#0283b0:000000000033
#028371:000000000013
#028321:000000000000000000000000000000000000000000000023
#029371:00130000
#0293b1:002300
#029320:00130000
#029360:002300
#029320:000000000000000000000013000000000000000000000000
#029360:0000000000230000
#030360:000000130000000023000000000000000000000000000000
#030320:000000000000000000000053000000000000000000000000000000000000000000000000000000000000000000000000
#0303b1:000000000000000013000023000000000000000000000000
#030320:000000000000000000000013000000000000000000000000
#030360:0000000000230000
#030360:0000000000000013
#031320:23
#031371:13
#0313b1:0023000000000000
#031320:0013000000000000
#031360:00230000
#0313b1:000000132300000000000000
#032321:1252
#032361:00520052
#032341:0000005200520052
#033321:5252
#033341:0052005200520052
#033361:00520052
#034321:22
#0343c0:1252
#034380:00520052
#0343a0:0000005200520052
#0353c0:5252
#0353a0:0052005200520052
#035380:00520052
#0363c0:22
#0363c0:000000000000000000000012000000000000000000000000
#036370:0000000000220000
#036371:000000000000000000000012000000000000000000000000
#036321:0000000000220000
#036321:000000000000000000000000000000000000000000000012
#037371:0022000000000000
#036370:000000000000000000000000000000000000000000000012
#0373c0:0022000000000000
#0373c0:000000000000000000000012000000000000000000000000
#037370:0000000000220000
#037371:000000000000000000000012000000000000000000000000
#037321:0000000000220000
#038321:000000000000000000000012000000000000000000000000
#038371:0000000000220000
#038370:000000000000000000000012000000000000000000000000
#0383c0:0000000000220000
#0383a0:000000000000000000000000000000000000000000000000000000000000000000000000143434343434003434343434
#038370:0000000000000032
#0393a0:24
#038351:000000000000000000000000000000000000000000000000000000000000000000000000143434343434003434343434
#038321:0000000000000032
#039351:24
#040391:000000000000000000000000000000000000000000000000130000000000530000000053000000000000000000000000000000000000000000000000000000000000000000000000000000000000000000000000000000000000000000000000
#0403b1:000000000000000000000000000053000000005300000000000000000000000000000000000000000000000000000000
#040371:000000000000000033000023000000000000000000000000
#040340:000000000000000000000000000000000000000000000000130000000000530000000053000000000000000000000000000000000000000000000000000000000000000000000000000000000000000000000000000000000000000000000000
#040360:000000000000000000000000000053000000005300000000000000000000000000000000000000000000000000000000
#040320:000000000000000033000023000000000000000000000000
#040390:000000000000000000000000000000000000000000000000000000000000000000000000000000000000000000000000000000000000000000000000000000000000000000000000130000000000530000000053000000000000000000000000
#0403b0:000000000000000000000000000000000000000000000000000000000000000000000000000053000000005300000000
#040370:000000000000000000000000000000000000000033000023
#040341:000000000000000000000000000000000000000000000000000000000000000000000000000000000000000000000000000000000000000000000000000000000000000000000000130000000000530000000053000000000000000000000000
#040361:000000000000000000000000000000000000000000000000000000000000000000000000000053000000005300000000
#040321:000000000000000000000000000000000000000033000023
#041391:000000000000000000000000000000000000000000000000130000000000530000000053000000000000000000000000000000000000000000000000000000000000000000000000000000000000000000000000000000000000000000000000
#0413b1:000000000000000000000000000053000000005300000000000000000000000000000000000000000000000000000000
#041371:000000000000000033000000000000230000000000000000
#0413a1:000000000000000000000033000000000000000000000000
#041340:000000000000000000000000000000000000000000000000130000000000530000000053000000000000000000000000000000000000000000000000000000000000000000000000000000000000000000000000000000000000000000000000
#041360:000000000000000000000000000053000000005300000000000000000000000000000000000000000000000000000000
#041320:000000000000000033000000000000330000230000000000
#041350:000000000000000000000033000000000000000000000000
#0423b0:00130000
#042360:002300
#042321:001300
#042371:000000000000000000000023000000000000000000000000
#0423b0:000000000000000000000013000000000000000000000000
#042360:0000000000230000
#042320:00000013
#042370:000000000023
#0423b1:000000000013
#042361:000000000000000000000000000000000000000000000023
#042320:000000000000000000000000000000000000000000000013
#043370:0023000000000000
#044360:00130000
#0443b0:002300
#044371:001300
#044321:000000000000000000000023000000000000000000000000
#044371:00000013
#044321:000000000023
#044360:000000000013
#0443b0:000000000000000000000000000000000000000000000023
#045360:00130000
#045320:002300
#0453b1:00130000
#045371:002300
#045371:000000000000000000000013000000000000000000000000
#0453b1:0000000000230000
#046321:000000130000000023000000000000000000000000000000
#046361:000000000000000000000053000000000000000000000000000000000000000000000000000000000000000000000000
#0463b0:000000000000000013000023000000000000000000000000
#046361:000000000000000000000013000000000000000000000000
#046321:0000000000230000
#0473a1:0000000000140000
#047371:000000000000000000000000000000000000000000000000000000000000003400000000000000000000000000000000
#047351:000034
#047331:00000000000000000000003400000000
#047321:000000000000000000000000000000000000000000000000000000000000000000003434240000000000000000000000
#048361:0000001300000000
#048321:000000000000000000000023000000000000000000000000
#0483b1:000000000000001300000000
#048381:00000023
#048360:000000000000001300000000
#048320:0000000000000023
#049320:000000000000000000000013000000000000330000000000
#049370:0000000000330023
#050370:0000001300000000
#0503b0:000000000000000000000023000000000000000000000000
#050320:000000000000001300000000
#050350:00000023
#050371:000000000000001300000000
#0503b1:0000000000000023
#0513b1:000000000000000000000013000000000000000000000000
#051361:0000000000230000
#0523c1:122200
#052320:000012220000
#052381:000000000000122200000000
#052360:000000000000001200220000
#0523c1:00000012
#0533c1:22
#053340:122200000000
#053381:000000000000000012000000000000000022000000000000000000000000000000000000000000000000000000000000
#053360:000000000000000000000000000000000012220000000000000000000000000000000000000000000000000000000000
#0533a1:00000000000012000022000000000000
#053320:000000000000000000000000000000000000000000000000000000120000000022000000000000000000000000000000
#053381:000000000000000000000000000000000000000000000000000000000000000012000000000000000000002200000000
#053350:000000000000000000000000000000000000000000000000000000000000000000000000000000000000001200000000
#054350:000000000000000000000000000000000022000000000000000000000000000000000000000000000000000000000000
#055380:0000000000120000
#0563c0:00000000000000000052000000000000
#057380:0022
#055361:0000000000120000
#056321:00000000000000000052000000000000
#057361:0022
