This file was generated by Ched 2.6.4.0.
#TITLE ""
#ARTIST ""
#DESIGNER ""
#DIFFICULTY 0
#PLAYLEVEL
#SONGID ""
#WAVE ""
#WAVEOFFSET 0
#JACKET ""
#REQUEST "ticks_per_beat 480"
#00002: 4
#BPM01: 102
#00008: 01
#TIL00: ""
#HISPEED 00
#MEASUREHS 00
#01014:00000014
#0101a:14
#01012:00140000
#01018:0014
#01414:0014
#01412:14
#0141a:00140000
#01418:00000014
#02514:14
#0251a:00140000
#03618:00000014
#03614:00140000
#03812:1414
#0381a:00140014
#0501a:14
#05014:00140000
#05018:0014
#05012:00000014
#05118:14
#05114:00140000
#0511a:0014
#01512:14
#0151a:00140000
#01514:0014
#01618:14
#01714:14
#0181a:14
#01812:0014
#02412:00140000
#02418:24
#03714:00140000
#03718:00000014
#02814:14
#0281a:00140000
#02810:41
#02918:14
#02912:00140000
#04014:00140000
#04019:0014
#04013:00000014
#04018:24
#0401f:21
#04010:00000041
#0411a:14
#04112:00140000
#04119:0014
#04113:00000014
#0261a:14
#02612:00140000
#02618:0014
#02614:00000014
#0271a:14
#02718:0034
#02719:00340000
#03012:14
#0301a:00140000
#03014:0014
#03018:00000014
#03214:0014
#0321f:11
#0321a:24
#03312:34143400
#04418:00140000
#04413:0014
#04419:00000014
#04414:24
#04512:14
#0451a:00140000
#04513:0014
#04519:00000014
#04813:00140014
#04812:0014
#04814:24
#04810:41
#04913:00140000
#04914:14
#05418:0016
#05212:16
#01212:14
#01218:00140000
#01210:41
#01918:1414
#01914:00140014
#02218:14
#02214:0014
#02112:14
#0201a:14
#02010:41
#03112:14
#03114:00343400
#03418:0014
#0351a:34143400
#00414:00140000
#00418:0014
#00412:00000014
#0041a:24
#00410:41
#00518:14
#00514:00140000
#0051a:0014
#00612:14
#00618:00140000
#00614:0014
#0061a:00000014
#00714:14
#00718:00140000
#00712:0014
#0111a:14
#01112:00140000
#01118:0014
#04218:14
#04214:00140000
#04219:0014
#04213:00000014
#0431a:14
#04312:00140000
#04614:14
#04618:00140000
#04612:0014
#0461a:00000014
#00814:00140000
#0081a:24
#00912:14
#00918:00140000
#0131a:14
#01314:00140000
#03919:24
#03913:24
#04712:26
#04718:0026000000000000
#01658:54
#01754:64
#0275a:64
#03254:0064
#0325a:14
#03352:00240000
#04954:24
#04953:00640000
#04852:0024
#04853:00640054
#04854:24
#05458:0066
#05252:56
#02152:54
#0205a:64
#03152:54
#03458:0054
#0355a:00240000
#02353:00000014
#02359:00000014
#0003a0:1424
#001320:1424
#002380:1424
#003340:1424
#008380:00001424
#009340:00001424
#012340:00001424
#013380:00001424
#016380:14
#0163a0:00000024
#017340:14
#017320:00000024
#0203a0:14
#020380:00000024
#021320:14
#021340:00000024
#023330:140000000000340000000034000000000000240000000000
#023391:140000340000000034000034000000000000240000000000
#024381:0014
#0243a1:00000024
#025341:0014
#025321:00000024
#0273a1:14
#027391:00340000
#027381:00003424
#028341:0014
#028321:00000024
#029381:0014
#0293a1:00000024
#031321:14
#031341:00343424
#032341:0014
#033321:34543400
#034341:24
#034381:0014
#0353a1:34543400
#036381:24
#043391:00001424
#048341:14
#048331:00540054
#048321:0054
#049341:54
#049331:00540000
#049321:0024
#052321:16
#052341:000034
#053341:000000000000000000340000000000000000000000002400
#054381:0016
#055381:0000000000340000
#057381:0024
