This file was generated by Ched 2.7.0.0.
#TITLE ""
#ARTIST ""
#DESIGNER ""
#DIFFICULTY 0
#PLAYLEVEL
#SONGID ""
#WAVE ""
#WAVEOFFSET 0
#JACKET ""
#REQUEST "ticks_per_beat 480"
#00002: 4
#BPM01: 132
#00008: 01
#TIL00: ""
#HISPEED 00
#MEASUREHS 00
#0041a:14
#00410:41
#00514:14
#00618:14
#00712:14
#0081a:14
#00914:14
#01018:14
#01112:14
#0121a:14
#01210:41
#0131a:14
#01412:14
#01512:14
#0201a:14
#02010:41
#0211a:14
#02212:14
#02312:14
#0281a:14
#0281f:11
#0291a:14
#03014:14
#0311a:14
#03212:14
#03312:14
#03418:14
#03512:14
#0351f:0000000000000021
#03618:2616
#03610:0041
#04018:1616
#03812:1616
#04112:16
#04118:0016
#04212:1616
#04318:16
#04312:0016
#04412:0016
#04418:26
#04410:41
#04612:16
#04618:0016
#04818:16
#04812:0016
#04918:1616
#05512:16
#05518:0016
#05012:16
#05018:0016
#05112:1616
#05912:14
#06018:14
#06114:14
#0621a:14
#06312:14
#06418:14
#06514:14
#0581a:24
#02710:00000041
#000390:14
#001390:24
#002330:14
#003330:24
#016380:1434
#017380:3424
#018320:1434
#019320:3424
#0243a0:1434
#0253a0:3424
#026340:1434
#027340:3424
#037380:1626
#039320:1626
#045380:1626
#047320:1626
#052380:1626
#053320:1626
#054380:1626
#056320:16
#057320:26
#0663a0:14
#0703a0:24
