This file was generated by Ched 2.7.0.0.
#TITLE ""
#ARTIST ""
#DESIGNER ""
#DIFFICULTY 0
#PLAYLEVEL
#SONGID ""
#WAVE ""
#WAVEOFFSET 0
#JACKET ""
#REQUEST "ticks_per_beat 480"
#00002: 4
#BPM01: 132
#00008: 01
#TIL00: ""
#HISPEED 00
#MEASUREHS 00
#00314:0000000000000014
#00416:0000000000130013
#00412:0013000000001300
#0041b:0000000000130013
#00417:0013000000001300
#0041a:24
#00410:41
#00512:0000001300130000
#00518:0013001300001300
#0051b:0000130000000013
#00515:00131300
#00612:1400000000130013
#0061b:0013000000001300
#00617:0000000000130013
#00616:0013000000001300
#00718:00000000130000000000001300000013
#0071b:00000000000013000000000000130000
#00712:00131313
#00715:0013001300130013
#0081b:0013000000131300
#00817:0000000013000013
#00812:2400130000130013
#00816:0013000000001300
#00916:00130013
#00912:0013000000000013
#0091b:1300130000130000
#00917:0013
#00914:0000001300000000
#01017:13130000
#0101b:0013001300000000
#01016:00001313
#01012:0000000000130013
#01212:0013000000000013
#01215:00131300
#01218:0000001300000000
#01216:00000013
#0121a:14
#01210:41
#01314:00130000
#01312:0013000000230000
#01319:00130000
#01316:0000001300000013
#0131b:0000002300000013
#01317:0000000000130000
#01412:0013001300001300
#0141b:0000130000130000
#01415:00130000
#01417:00000013
#01418:0000001300000000
#0151b:13
#01516:13
#01512:0013000000001300
#01517:0013000000001300
#01514:0000000000000013
#01519:0000000000000013
#01816:13000013
#01812:0013001300130000
#0181b:13131313
#01817:0000001300000000
#01819:0000000000000013
#01814:0000000000000013
#01614:0000001300000013
#01619:0000001300000013
#01917:13
#01912:0000001300001400
#0191b:0000001300000000
#01914:0000000000140014
#01918:0000000000240024
#0191a:00000024
#0171b:1300001300000000
#01718:0033130000000000
#01712:1300001300001300
#01715:0033130000000000
#01714:0000000000000013
#01717:00000013
#01719:0000000000000013
#02012:14
#0201b:0013000000000013
#02018:00131300
#02015:0000001300000000
#02017:00000013
#02010:41
#02119:00130000
#0211b:0013000000000000
#02114:00131300
#02117:0000000000000013
#02112:0000001300000013
#02116:0000000000130000
#0221b:0013001300001313
#02212:0000130000130000
#02218:00130000
#02216:0000000000001313
#02215:0000001300000000
#0231b:0013000000001300
#02316:0013000000001300
#02319:0000000000000013
#02314:0000000000000013
#02617:13000013
#0261b:0013001300130000
#02616:0000001300000013
#02612:13131313
#02419:0000001300000013
#02414:0000001300000013
#02512:13130000
#02515:0013001300000000
#0251b:13130013
#02518:0013001300000000
#02519:0000000000000013
#02516:00000013
#02514:0000000000000013
#02717:00130000
#02712:00130024
#0271b:0000001300000000
#02716:0000001300000013
#0271a:00000024
#02710:00000041
#02816:1300000013000013
#0281a:14
#02817:00130013
#02814:0000001300000000
#0281b:0000000013000013
#0281f:11
#02916:0000001300001300
#0291b:0000001300001300
#02917:00130000000000000000130000001300
#02912:00130000000000000000130000001300
#0301b:0013001300000023
#03017:00130000
#03012:0000130000130000
#03016:0000001300000013
#03014:00000013
#03117:0023000000130013
#03116:0000001300000000
#03112:0013000000002400
#0311a:00000024
#0311b:0000002300000000
#03217:1313
#03212:1413
#03216:00130013
#03219:0000001300000013
#03214:0000000000000013
#0331b:0000000000130000
#03319:00000013
#03317:0000000000000013
#03316:0000000000130000
#03314:00000013
#03312:0000000000000013
#03512:1515151500002613
#03519:2525252500000000
#03518:0000000000260026
#0351f:0000000000000021
#03616:0000000013000013
#0361b:0013130013000013
#03614:0000001300000000
#03612:00130000
#03617:00000013
#03610:0041
#03712:0013130013000016
#0371b:0000130000000013
#03719:0000001300000000
#03717:0013
#03718:00000013
#04012:00130000
#04014:0000001300000000
#04016:0000000000000013
#0401b:0000000023000023
#04017:00230000
#04019:0000002300000000
#04112:0014001400000000
#04115:00141413
#0411a:00242400
#04117:0024002400000000
#06513:14000000000000000000000000140000
#06519:1400000000140000
#0651a:00241400
#06512:00000000240000001400000000000014
#06514:00000000000000000000001400000000
#06518:00000014
#06517:0000000000000014
#04219:0013000000000000
#04217:0000130013000017
#04212:00131300
#0421b:2300001300000000
#04216:0000001300000000
#04312:0017001414001300
#0431b:0000001313000000
#04316:0000000000000013
#0431a:0000000000000024
#04415:0013
#04418:0000001300001300
#04412:0000130000130013
#0441b:0000130013000013
#04417:0013000000000000
#04410:41
#04515:0013000000000000
#04519:0000001300000000
#0451b:00130013
#04512:0000130013000024
#04516:00000013
#04517:0000000013000013
#04518:13
#04612:0000130013000013
#04615:0000001300001300
#04616:0013000000000000
#04618:0013
#0461b:0000130000130013
#0481b:1300001300000000
#04819:00131313
#04816:0000001400000013
#04812:0014000000140000
#04814:14141400
#04817:0013000000000000
#04716:0000000013000013
#04718:0013000000000000
#04714:0000001300000000
#04712:00130013
#0471b:0000130013000013
#04717:00000013
#04715:13
#04912:1300001300000000
#04914:00131313
#04917:0000000000000013
#0491a:0014000000140000
#04918:14141400
#04916:0013001400000000
#05016:0014000000000014
#05014:00140014
#0501a:24140014
#05012:2400001400140013
#05115:0000000013130000
#05118:00000000000000000013000000000000
#0511b:0000000000001313
#05116:0000000000000013
#05112:00000013
#05212:1300001300000000
#05214:00131313
#05217:0000000000000013
#0521a:0014000000140000
#05218:14141400
#05216:0013001400000000
#0531b:1300001300000000
#05319:00131313
#05316:0000001400000013
#05312:0014000000140000
#05314:14141400
#05317:0013000000000000
#05715:0000000013131313
#05718:00000000000000000013001300130013
#05414:00130000
#05419:00130000
#05416:0014000000000000
#05412:2400001300000000
#05415:00000000000000000000001300000000
#0541b:0000001300000000
#05418:00000000000000000000001300000000
#0541a:24
#05514:0000000000140014
#05512:24240014
#0551a:24240024
#05518:0000000000240024
#05612:0013130000000000
#0561b:0023230000000000
#05817:0000000000130013
#0581b:0013000000001300
#05812:2400000000130013
#05816:0013000000001300
#0591b:0000001300130000
#05915:0013001300001300
#05912:0000130000000013
#05918:00131300
#0601a:14
#06012:0013000000001300
#06016:0000000000130013
#0601b:0000000000130013
#06017:0013000000001300
#06115:00000000130000000000001300000013
#06112:00000000000013000000000000130000
#0611b:00131313
#06118:0013001300130013
#06212:0013000000131300
#06216:0000000013000013
#0621b:0000130000130013
#06217:0013000000001300
#0621a:24
#06317:00130013
#0631b:0013000000000013
#06312:1300130000130000
#06316:0013
#06319:0000001300000000
#06416:13130000
#06412:0013001300000000
#06417:00001313
#0641b:0000000000130013
#01113:14000000000000000000000000000013
#01119:1400000000130000
#0111a:00241400
#01112:00241400
#01115:00000000000000000000001300000000
#01118:00000013
#01114:00000000000000000000000000130000
#01117:0000000000000013
#03817:0000000013000013
#03812:0013130013000013
#03819:0000001300000000
#0381b:00130000
#03816:00000013
#0391b:0013130013000000
#03912:00130000
#03914:0000001300000000
#03916:0013
#03915:00000013
#03917:0000000000000023
#0045a:14
#00456:0000000000000063
#0035b:13
#00352:13
#00852:14
#00857:0000000000000063
#00657:0000000000000053
#0095b:23
#0175b:5300002300000000
#01758:00530000
#01752:6300002300000000
#01755:00630000
#01556:0000001300000000
#0155b:0000001300000000
#01552:0063000000000000
#01557:0063000000000000
#01852:0023000000000000
#01856:63
#0185b:0023
#01857:0000005300000000
#0135b:0000000000000063
#01452:0000006300000000
#01957:63
#02052:14
#02152:0000000000000053
#0225b:0000005300000000
#0235b:0053000000000000
#02356:0053000000000000
#02357:0000001300000000
#02352:0000001300000000
#0265b:0023000000000000
#02657:53
#02656:0000006300000053
#02652:0023
#02552:63630000
#02555:0023002300000000
#0255b:53530000
#02558:0023002300000000
#0285a:14
#02856:5300000053000053
#0285b:0000000000000053
#02956:0000001300000000
#0295b:0000001300000000
#02957:00230000000000000000000000000000
#02952:00230000000000000000000000002300
#03257:6363
#03252:14
#03355:0000001300000000
#0335b:0000001300000000
#0305b:0000002300000000
#03056:0000000000000053
#03152:0053000000000000
#03156:0000005300000000
#03558:0000000000000016
#03552:0000000000000023
#0365b:0000000000000053
#03656:0063
#04155:0014
#0415a:0014
#0655a:00140000
#06552:00140000
#06553:14
#06559:14
#04257:0000000023000047
#04252:0023
#04256:0000006300000000
#0425b:0000006300000000
#04352:0037000000000000
#0435b:0053
#04356:0000000000000053
#0435a:0000000000000014
#04455:0053
#0445b:0000000000000053
#04452:0000000000230000
#05156:0013000000000000
#0515a:00140000
#0555a:44440000
#05552:34340000
#05455:00000000000000000000002300000000
#05452:0000006300000000
#0545b:0000005300000000
#05458:00000000000000000000002300000000
#05652:00630000
#0565b:00630000
#05252:13
#05254:0013
#0525a:0024000000240000
#05258:64646400
#05256:0000002400000000
#05052:0000000000000063
#05056:0000000000000064
#05857:0000000000000053
#05852:14
#06056:0000000000000063
#0605a:14
#06256:0000000000000053
#0625a:14
#06352:23
#05359:0013
#0535b:13
#05352:0024000000240000
#05354:54545400
#05356:0000002400000000
#06456:13
#06457:0013
#04852:0024000000240000
#04854:54545400
#04856:0000002400000000
#0495a:0024000000240000
#04958:64646400
#04956:0000002400000000
#0115a:00140000
#01152:00140000
#0125a:14
#03752:0013
#0375b:0000000000000023
#03857:0053
#03852:0000000000000063
#0395b:0013
#04557:0000000013000063
#04558:23
#04658:0063
#04652:0000000000000063
#0465b:0000000000230000
#04756:0013
#04755:23
#0003b0:1333000033330000
#000380:0000333300003333
#0013b0:23
#001321:1333000033330000
#001351:0000333300003333
#002321:3333000033003300
#002351:0000333300330033
#003321:23
#0023b0:1333000033003300
#002380:0000333300330033
#0033b0:23
#004370:00132300
#0043b0:0000003300000000
#004321:00132300
#004361:0000003300000000
#004361:0000000000000013
#005321:0023000000000000
#0053b1:0013
#005371:0000000000230000
#005321:00000013
#005361:0000000000000023
#006361:00132300
#006321:0000003300000000
#0063b0:00132300
#006370:0000003300000000
#006370:0000000000000013
#0073b0:0023000000000000
#0073b0:0000000013230000
#008370:00130000
#0083b0:0000002300000000
#008361:0000001300000000
#008321:0023
#008371:0000000000000013
#0093b1:53
#009371:0023000000000000
#009321:0013
#009361:0000000000230000
#0093b1:00000013
#009371:0000000000000023
#010321:13330000
#010361:0033002300000000
#0103b1:00001333
#010371:0000000000330023
#0123b1:00001323
#012371:0000000000000013
#013371:0023000000000000
#0133b1:0000000000000013
#014371:0023000000000000
#014321:0000001300000000
#014361:0000000000230000
#015321:0013000000000000
#015361:0000002300000000
#015370:0013000000000000
#0153b0:0000002300000000
#0163b0:13230000
#016361:13
#016321:00230000
#016321:00001323
#016370:0013
#0163b0:00000023
#0173b0:1300003300000000
#017380:0033330023000000
#017321:1300003300000000
#017351:0033330023000000
#018361:13230000
#018321:0053000000000000
#018371:0000001300230000
#0183b1:0053
#019371:13
#0193b1:00230000
#019320:13230000
#020320:00001323
#020360:0000000000000013
#021360:0023000000000000
#021370:0000001300000000
#021390:0033
#0213b0:0000000000230000
#021320:0000000000000013
#022360:0023000000000000
#0223b0:0000001300000000
#022370:0000000000230000
#0233b0:0013000000000000
#023370:0000002300000000
#023361:0013000000000000
#023321:0000002300000000
#024321:13230000
#024370:13
#0243b0:00230000
#0243b0:0000000013332300
#024361:0013
#024341:0000000000330000
#024321:00000023
#025321:13332300
#025351:0033003300000000
#0253b0:13332300
#025380:0033003300000000
#026370:13230000
#0263b0:0053000000000000
#026360:0000001300230000
#026320:0053
#026360:0000000000000013
#027320:0023000000000000
#0263b1:0000000000000013
#0273b1:0023000000000000
#028361:13
#028321:00230000
#028361:0013
#028321:00000023
#0283b1:0000000000000013
#029371:00530000000000000000000000000000
#0293b1:00230000
#028360:0000000000000013
#029320:00530000000000000000000000000000
#029360:00230000
#029320:0000000000000013
#030360:0023000000000000
#0303b0:0000001300000000
#030370:0000000000230000
#030360:0000000000000013
#031320:0033000000230000
#031360:0000003300000000
#032370:13
#0323b0:00230000
#032370:0013
#0323b0:00000023
#033320:13330000
#033350:0033002300000000
#033381:13330000
#0333b1:0033002300000000
#0343b1:1323000000000000
#034360:1323000000000000
#034320:0000132300000000
#034371:0000132300000000
#0343b1:0000000013230000
#034360:0000000013230000
#034320:0000000000001323
#034371:0000000000001323
#035321:0000000000000013
#036361:0023000000000000
#036361:0013
#036321:00000023
#0363b1:0000000000000013
#037371:0023000000000000
#0373b1:0000000000000013
#038371:0023000000000000
#038371:0013
#0383b1:00000023
#038321:0000000000000013
#039361:0023000000000000
#039321:0000000000000013
#040361:0023000000000000
#039370:0000000000000013
#0403b0:0023000000000000
#040360:0013
#040320:00000023
#0403b1:0013
#040371:00000023
#0413b1:00000013
#041371:0000000000000023
#041320:0000000000000013
#042360:23
#042360:0000001300230000
#042320:0053
#0423b1:0000001300230000
#042371:0053
#0433b1:0013
#043371:00000023
#043361:0000000000000013
#044321:0023000000000000
#044351:00001323
#044321:0000000000530000
#0443b1:0000000000000013
#045381:53
#0453b1:0023000000000000
#045371:0000000000000013
#0463b1:0023000000000000
#046381:00001323
#0463b1:0000000000530000
#046321:0000000000000013
#047351:53
#047321:0023000000000000
#048341:14343424
#048321:0054000000540000
#048361:0000005400000000
#049381:14343424
#0493a1:0054000000540000
#049361:0000005400000000
#050361:0000001400240000
#050321:0000000000000013
#051361:5323000000000000
#050360:0000000000000014
#0513a0:54240000
#052380:14343424
#0523a0:0054000000540000
#052360:0000005400000000
#053340:14343424
#053320:0054000000540000
#053360:0000005400000000
#054320:0000001300000000
#054350:00000000000000000000005300000000
#055320:24
#0543b1:0000001300000000
#054381:00000000000000000000005300000000
#0553a1:24
#0563b1:00130000
#057381:0000562600000000
#056320:00130000
#057320:0000562600000000
#058360:00132300
#058320:0000003300000000
#0583b1:00132300
#058371:0000003300000000
#058371:0000000000000013
#0593b1:0023000000000000
#059321:0013
#059361:0000000000230000
#0593b1:00000013
#059371:0000000000000023
#060371:00132300
#0603b1:0000003300000000
#060320:00132300
#060360:0000003300000000
#060360:0000000000000013
#061320:0023000000000000
#061320:0000000013230000
#062360:00130000
#062320:0000002300000000
#062371:0000001300000000
#0623b1:0023
#062361:0000000000000013
#063321:53
#063361:0023000000000000
#0633b1:0013
#063371:0000000000230000
#063321:00000013
#063361:0000000000000023
#0643b1:13330000
#064371:0033002300000000
#064321:00001333
#064361:0000000000330023
#066361:14000000005400000000000000000000000000000000000000000000000000000000000000000000000000000000000000000000000000000000000000000000
#066341:00550000000000000000000000000000000000000000000000000000000000000000000000000000000000000000000000000000000000000000000000000000
#066371:0055540000000000000000000000000000000000000000000000000000000000
#066351:00000054000000000000000000000000000000000000000000000000000000000000000000000000000000000000000000000000000000000000000000000000
#070371:22
