This file was generated by Ched 2.7.0.0.
#TITLE ""
#ARTIST ""
#DESIGNER ""
#DIFFICULTY 0
#PLAYLEVEL
#SONGID ""
#WAVE ""
#WAVEOFFSET 0
#JACKET ""
#REQUEST "ticks_per_beat 480"
#00002: 4
#BPM01: 132
#00008: 01
#TIL00: ""
#HISPEED 00
#MEASUREHS 00
#00315:0000000000000013
#00418:0000130000000013
#0041b:0000000000130000
#00415:0000001300001300
#00412:0013000013000000
#0041a:24
#00410:41
#0051b:0000000000130000
#00518:0000001300001300
#00518:00000013
#00515:0000130000000013
#00512:0013
#00612:1300000000130000
#00615:0000130000000013
#00618:0000001300001300
#0061b:0013000013000000
#01113:14
#01119:14
#01114:00000000000000000000000000140000
#01118:0000000000001414
#0111a:00240000
#01112:00240000
#01212:0013000000000000
#01215:00130000
#01218:0000001300000000
#01210:41
#01318:0000130000130000
#0131b:0000002300000013
#01315:0000001300000000
#01312:0000000000230000
#01418:00130000
#01412:0000001300000000
#01415:00000013
#01518:1313000000000013
#01512:00000013
#01615:0000001300000000
#01618:0000000000000013
#01719:00130000
#01718:1300000000000013
#0171b:0013000000000000
#01717:0000001300000000
#01715:00000013
#01914:0000000000130013
#01912:0000001300001300
#0191b:0000001300002300
#01919:0000000000230023
#0281b:0000000000000013
#02815:13000013
#02818:0000001300000000
#02812:0013
#0281f:11
#02917:0013000000000000
#02915:0000000000130013
#02918:00000013
#0291b:0000330000000013
#03015:0000130000130013
#03012:0000001300000000
#03018:0013001300001300
#03312:1300000000000013
#03318:1300000000130000
#03315:0033330000001300
#0331b:0033330000000000
#03513:1414141400000000
#03519:2424242400000000
#03518:0000000000260026
#03512:00000026
#0351f:0000000000000021
#03615:0013000013000000
#03618:0000001300000013
#0361b:00130000
#03610:0041
#03718:0000001300000013
#03715:00130000
#03712:0014
#0371a:0014
#04015:0000000000000013
#04012:00000013
#0401b:0000000000000023
#04018:0023000000002300
#04218:0013000000000000
#04215:00130000
#0421a:0000000000000014
#04212:0000001300000000
#0421b:23
#04312:0014000000000026
#04319:0000001414000000
#04313:0000001414000000
#05316:0000000000000014
#05312:00130014
#0531b:0000001300000000
#05313:0014
#05319:0014
#05418:00140000
#05414:0014000000000000
#05412:0000001400000000
#05415:00000000000000000000001400000000
#0541a:24
#05514:0000000000130013
#05512:24000013
#0551a:00240000
#05519:0000000000230023
#0551b:00000023
#05612:0013130000000000
#0561b:0023230000000000
#0071b:0013
#00715:00000000000013000000000000140000
#00718:00130000
#00712:00000000000000000000143434003434
#00815:0000000013000013
#0081b:0013000000130000
#00818:0000001300001300
#00812:2400130000130000
#00912:0013
#00915:0000001300001300
#0091b:0000000013000013
#00918:0000130000130000
#01018:0013
#01015:13
#0101a:0000000000330000
#0101b:00000033
#01013:0033000000000000
#01012:00330000
#0201b:0013000000000000
#02018:00130000
#02015:0000001300000000
#02010:41
#02115:0000130000130000
#02112:0000001300000013
#0211b:0000000000130000
#02118:0013
#02215:0000130000000013
#0221b:0000001300000013
#02218:00000013
#02315:0013000000000013
#0231b:00000013
#02418:0000001300000000
#02415:0000000000000013
#0241a:0000000000330000
#02518:00000013
#02515:1300000000000013
#02514:00130000
#02512:0013000000000000
#02516:0000001300000000
#0271b:0000001300000000
#02712:0000001300002400
#02715:0013000000000000
#02718:00130000
#0271a:00000024
#02710:00000041
#02615:00130013
#02612:0000001300000013
#02618:1300000000130000
#0261b:0000001300000013
#01818:00130000
#0181b:0000001300001300
#01815:1300000000130000
#01812:0000001300001300
#03218:13000013
#03215:0000001300000013
#0321b:0013
#03418:1313
#0341b:00130000
#03112:0013000000002400
#03115:0000001300000000
#0311a:00000024
#0381b:13
#03815:0000130000000013
#0381a:0014
#03818:00000013
#03812:0014
#03918:0000130000000023
#03912:1300000014000013
#0391a:0014
#04118:0023000000001300
#04115:0000000000000013
#04418:0013000013000000
#04415:0000001300000013
#04412:00130000
#04410:41
#04515:0000001300000013
#04518:00130000
#0451a:0014
#04512:0014
#04612:1314
#04618:0000130000000013
#04615:0000001300001300
#0461a:0014
#04715:00130000
#0471b:13
#04712:0014
#0471a:0014
#04718:0000000000000013
#05112:0013000000000000
#0511b:0013000000000000
#05115:0000000000000013
#05815:0000130000000013
#05812:2400000000130000
#05818:0000001300001300
#0581b:0013000013000000
#05912:0000000000130000
#05915:0000001300001300
#05915:00000013
#05918:0000130000000013
#0591b:0013
#0601b:1300000000130000
#06018:0000130000000013
#06015:0000001300001300
#06012:0013000013000000
#06519:14
#06513:14
#06518:0000000000001414
#06514:00000000000000000000000000140000
#06512:00240000
#0651a:00240000
#06112:0013
#06118:0000001300000000
#06115:00130000
#0611a:00000000000000000000143434003434
#06117:00000000000000000000000000140000
#06218:0000000013000013
#06212:0013000000130000
#06215:0000001300001300
#0621b:0000130000130000
#0621a:24
#0631b:0013
#06318:0000001300001300
#06312:0000000013000013
#06315:0000130000130000
#06415:0013
#06418:13
#06413:0000000000330000
#06412:00000033
#0641a:0033000000000000
#0641b:00330000
#05015:0013000000001300
#05018:0000130000000013
#0501b:0000001300000000
#05012:23
#04915:00000013
#04918:0000000000000013
#0491b:00130000
#04912:0000001300000000
#04919:0014
#04913:0014
#04815:13
#04818:0013000000001300
#04812:00130000
#0481b:0000001300000000
#04819:0014
#04813:0014
#05218:13
#05215:0013000000001300
#0521b:00130000
#05212:0000001300000000
#05213:0014
#05219:0014
#0045a:14
#00458:0000000000000063
#0035b:13
#01759:00530000
#01758:53
#0175b:0023000000000000
#01757:0000002300000000
#0155b:0000001300000000
#01558:0063000000000000
#0135b:0000000000000063
#01452:0000006300000000
#02957:0023000000000000
#0295b:0000001300000000
#0285b:0000000000000053
#02855:53
#03352:63
#03355:0000001300000000
#03358:63
#0335b:0000001300000000
#03558:0000000000000016
#03658:0000000000000053
#03655:0063
#05552:34
#0555a:00440000
#05455:00000000000000000000002400000000
#05452:0000006400000000
#05652:00630000
#0565b:00630000
#00655:0000000000000053
#00852:14
#00855:0000000000000053
#00755:00000000000000000000000000240000
#00752:0000000000540000
#01058:0053
#01055:63
#02152:0000000000000053
#0225b:0000005300000000
#02355:0053000000000000
#02352:0000001300000000
#03258:63
#03458:6363
#0345b:00630000
#03152:0053000000000000
#03155:0000005300000000
#03055:0000000000000053
#0385b:23
#03855:0000000000000063
#03758:0000000000000053
#03952:2314
#0395a:0014
#0415b:0013
#04155:0013
#04252:0000006300000000
#0425a:0000000000000044
#04352:0034000000000016
#04458:0053
#04455:0000000000000063
#04652:23
#04658:0000000000000053
#04555:0000000000000063
#0475b:23
#04752:0014
#0475a:0014
#05855:0000000000000053
#05852:14
#06058:0000000000000063
#0615a:0000000000640000
#06157:00000000000000000000000000240000
#06258:0000000000000063
#0625a:14
#06455:0063
#06458:53
#06552:00140000
#0655a:00140000
#0505b:0000005300000000
#0115a:00140000
#01152:00140000
#02554:00630000
#02555:63
#02552:0023000000000000
#02556:0000002300000000
#0003b0:1300005333000000
#000380:0053330000532300
#001320:1300005333000000
#001350:0053330000532300
#0023b0:1300005333000053
#002380:0053330000533300
#0033b0:23
#004380:0000000000000013
#0053b0:0023000000000000
#006350:0000000000000013
#007320:0023000000000000
#007320:00000000000000000000143434003434
#007350:00000000000000000000000000340000
#008320:24
#008350:0000000000000013
#009320:0023000000000000
#010350:13
#010330:0033000000000000
#010320:0000332300000000
#010380:0013
#0103a0:0000000000330000
#0103b0:0000000000003323
#0123b0:00001323
#012350:0000000000000013
#013350:0023000000000000
#0133b0:0000000000000013
#014380:0023000000000000
#014320:0000001300000000
#014350:0000000000230000
#015380:0013000000000000
#0153b0:0000002300000000
#016380:13
#0163b0:00230000
#016350:0013
#016320:00000023
#017380:13
#0173b0:0053000000000000
#017390:00330000
#017370:0000005300000000
#0173a0:0023
#019380:13230000
#020320:00001323
#020380:0000000000000013
#021380:0023000000000000
#021320:0000000000000013
#022350:0023000000000000
#0223b0:0000001300000000
#022380:0000000000230000
#023350:0013000000000000
#023320:0000002300000000
#024350:13
#024320:00230000
#024380:0013
#0243a0:0000000000330000
#0243b0:00000023
#025350:13
#025320:0053000000000000
#025340:00330000
#025360:0000005300000000
#025330:0023
#028350:13
#028320:00230000
#0283b0:0000000000000013
#029370:0053000000000000
#0293b0:0000332300000000
#030350:0000000000000013
#031320:0033000000230000
#031350:0000003300000000
#032380:13
#0323b0:00230000
#033320:13
#033350:0033332300000000
#033381:13
#0333b1:0033332300000000
#034381:1333
#0343b1:00330023
#036351:0013
#036321:00000023
#036381:0000000000000013
#0373b1:0023000000000000
#037381:0000000000000013
#0383b1:53
#038381:0023000000000000
#038351:0000000000000013
#039321:53
#039351:0023000000000000
#040321:0013000000000000
#040331:00330000
#040341:0000003300000000
#040351:0023
#040380:0013000000000000
#040390:00330000
#0403a0:0000003300000000
#0403b0:0023
#041380:0013330000000000
#0413b0:0000003323000000
#041321:0013330000000000
#041351:0000003323000000
#042321:0000001300000000
#042351:0000000000230000
#044381:0013
#0443b1:00000023
#044351:0000000000000013
#045321:0023000000000000
#045351:0000000000000013
#046321:53
#046351:0023000000000000
#046381:0000000000000013
#0473b1:53
#047381:0023000000000000
#048351:0000000000000013
#049351:0023000000000000
#0503b1:0000001300000000
#050381:0000000000230000
#051321:00132300
#0513b0:00132300
#052380:0000000000000013
#053380:0023000000000000
#054320:0000001400000000
#054350:00000000000000000000005400000000
#055320:24
#0563b0:00130000
#057380:0026
#056321:00130000
#057321:0026
#058351:0000000000000013
#059321:0023000000000000
#060381:0000000000000013
#0613b1:0023000000000000
#0613a1:00000000000000000000143434003434
#061371:00000000000000000000000000340000
#0623a1:24
#062381:0000000000000013
#0633b1:0023000000000000
#064381:13
#0643a1:0033000000000000
#0643b1:0000332300000000
#064351:0013
#064331:0000000000330000
#064321:0000000000003323
#066351:16000000005600000000000000000000000000000000000000000000000000000000000000000000000000000000000000000000000000000000000000000000
#066331:00570000000000000000000000000000000000000000000000000000000000000000000000000000000000000000000000000000000000000000000000000000
#066361:0057560000000000000000000000000000000000000000000000000000000000
#066341:00000056000000000000000000000000000000000000000000000000000000000000000000000000000000000000000000000000000000000000000000000000
#070361:24
