This file was generated by Ched 2.7.0.0.
#TITLE ""
#ARTIST ""
#DESIGNER ""
#DIFFICULTY 0
#PLAYLEVEL
#SONGID ""
#WAVE ""
#WAVEOFFSET 0
#JACKET ""
#REQUEST "ticks_per_beat 480"
#00002: 4
#BPM01: 132
#00008: 01
#TIL00: ""
#HISPEED 00
#MEASUREHS 00
#00318:0000000000000016
#00315:00000000000000000000000000000013
#00412:1313001300001300
#0041b:0000130013000013
#00416:00130000
#00417:0013001300001300
#00419:0000000000130000
#00414:0000000000130000
#00418:26
#00410:41
#00512:1300130000130000
#0051b:00130013
#00518:0000000000000013
#00515:0000001613000000
#00516:13
#00817:0000000013130000
#0081b:1313000000000013
#00812:26130000
#00816:0013000000000000
#0091b:0000130000130000
#00912:13130013
#00916:1313000000000000
#00915:0000001600000013
#00918:0013
#01212:0014000013001313
#01216:00140000
#01219:0000001300000000
#0121b:0000000013000013
#01214:1800001300000000
#0121a:0014000000000000
#01215:0000000000130000
#01210:41
#01312:0000130000230000
#0131b:0013002300000013
#01316:0000141414141414
#01318:13
#01416:1300141400001414
#01412:0013001300001300
#01417:0013
#0141b:0000130000130000
#0151b:13000013
#01516:14130000
#01512:0013000000000013
#01517:0013000000001313
#01812:00130013
#01818:12
#0181b:00130013
#01815:0000000000120000
#0181a:0000000000000012
#01814:0000000000000012
#01816:0000001200000000
#01819:0000000000120000
#01616:0000001313000000
#0161b:0013001300000000
#01612:0000000000130013
#01617:1300000000000013
#01916:12
#01912:0013001300001300
#0191b:0013001300002300
#01915:0000000000120000
#01914:0000000000000014
#01918:1200000000000024
#01919:0000000000220000
#01712:1200001200001300
#01716:0032120000000014
#0171b:00000013
#0171c:1200001200000000
#01718:0032120000000000
#02512:12120013
#02515:0013001300000000
#0251c:12120000
#02518:0013001300000000
#0251b:00000013
#02516:0000000000000014
#02716:0000000000000013
#0271b:0000001300000000
#02712:0000001300002400
#02718:13130000
#02715:13130000
#0271a:00000024
#02710:00000041
#02816:1300000000130000
#0281a:14
#0281b:0000130000130000
#02815:0000000000000013
#02817:0013000013000000
#02812:0013000013001300
#02814:0000001300000000
#02818:0000000000000013
#02819:0000001300000000
#0281f:11
#02912:0000001300130013
#0291b:0000001300001300
#02918:00000000000000000000001300000000
#02917:0000000000000013
#02916:00000013
#02919:00130000
#02914:00130000
#0301b:1313001300001323
#03017:00130000
#03012:0000130013130000
#03016:0000001300001313
#03015:00000013000000000000000000000000
#03018:00000000000000000000001300000000
#03119:0000000000130000
#03116:0000001300000014
#03112:0013000000002400
#03117:1323000013000000
#0311b:0000132300000000
#03114:0000000000130000
#0311a:00000024
#03312:13130013
#03317:13130013
#03316:0013000000000000
#0331b:0013000000000000
#03318:0000000000130000
#03319:0000000000000013
#03314:0000000000000013
#03315:00000000000000000000001300000000
#03512:1616161600130013
#03516:0014
#03515:00000013
#03518:2626262600002326
#0351b:0000000000230000
#0351f:0000000000000021
#03612:0000131300130000
#0361b:0013130013001313
#03616:1300000013000013
#03617:0000001300130000
#03610:0041
#03717:13130000
#03716:0013001314000000
#0371b:0000001300001313
#03712:1300130013000016
#03912:0000001300001300
#03916:1300130014000024
#0391b:13131300
#03917:0013001300000000
#04016:0024001424001424
#0401a:0000002400140014
#04012:0000000014142400
#04112:1424002414000000
#04116:1400141400000000
#0411a:00242400
#04219:0013000000130000
#04217:00131300
#0421b:0000001300001300
#04216:2300001300001300
#04212:00131300
#04214:0013000000130000
#04316:0013001414140000
#0431b:0013000013001313
#04312:1c001c1300000000
#04314:00000000000000000000000000340034
#0501a:0014000000001400
#05014:00130000
#05018:00140000
#05012:2400001300130013
#05016:0013000000001314
#05115:00000000000016000013000000001600
#05118:0000000013130000
#0511b:00000013
#05112:0000000000131300
#0511a:14
#05116:1314000000000000
#05718:1313141415151616
#05715:00130013000000000000000000000000
#05714:00000000001400140000000000000000
#05713:00000000000000000015001500000000
#05712:00000000000000000000000000160016
#05414:00130000
#05419:25130000
#05416:0014000000120000
#05412:2500001300000000
#0541b:0000001300000000
#05418:0000000000120000
#05515:0000000000120000
#05512:26260013
#05514:0000000000000014
#05518:2600260000000024
#05519:0000000000220000
#0551b:00000023
#05612:001616000000001c
#05618:0026260000000000
#01118:16260014
#01112:16001c00260000000000000000000012
#0111a:0000000014140000
#01116:00000000000000000000001200001400
#01114:00000000000000000000000000120000
#0071b:13000000130000000000000000130000
#00715:0000001600161300
#00712:0000130013000016
#00718:00000000000000000000001300000013
#00717:13
#0061b:1313001300001300
#00616:0013001300001300
#00612:1600130013000013
#00617:00130000
#00614:0000000000130000
#00619:0000000000130000
#02316:1413000000001313
#0231b:0013000000000013
#02312:13000013
#02317:00130000
#02412:1300001300000000
#0241b:0000000013000013
#03217:1300000000130000
#03212:13000000130000000000130000130000
#03216:0013000013000000
#0321b:00001300001300001300000013000000
#03215:00000000000013000000000000000013
#03218:00000000000000130000000000001300
#0341b:1313000000000000
#03412:0000141400001616
#03419:0000000015150000
#06512:161c260016160000
#06518:16000000260000000000001200000000
#06514:00000016
#0651a:00000000000000000000000000120000
#06516:0000000000000016
#0651c:00000000000000000000000000000012
#0381b:0000131300130000
#03812:0013130013001313
#03817:1300000013000013
#03816:0000001300130000
#0201a:0014000000000000
#02016:00140000
#02014:1800001300000000
#02012:0014000013000013
#02019:0000001300000000
#0201b:0000000013001313
#02018:0000000000130000
#02010:41
#02217:13
#0221b:0013001300001300
#02216:0000141413001414
#02212:0000130000130000
#02116:0000141414001414
#02112:0013001300130013
#0211b:0000130013130000
#02115:13
#02619:00000012
#0261b:0000130000130000
#02615:00000012
#0261c:0000000000000012
#02612:0000130000130012
#02616:12
#02618:0000001200000000
#04412:2413000000130000
#0441b:1300130013001313
#04416:0000130013000013
#04417:0000001300130000
#04410:41
#04516:0013000013000000
#0451b:00130013
#04518:0000001300000000
#04512:1300130000000013
#04514:0000001300000000
#0451a:0014
#04517:1300000000000013
#04715:0000001300000016
#04712:00131413
#0471b:13130000
#04719:0000001300000000
#04717:0013000013000000
#04716:13
#04612:1300130013001313
#04616:0000001300130000
#04617:0000130013000013
#0461b:0013000000130000
#0461a:24
#04812:13000013
#04814:0013001300000000
#04816:00130000
#0481b:13131300
#04819:0012001200130013
#04817:00000013
#04815:0000000000120012
#04912:14000013
#04914:0014001400000000
#04916:00140014
#04919:0012001200000000
#0491b:00130000
#04915:0000000000120012
#0491a:0014
#04918:0000000000140014
#0521a:1400000000120012
#05218:0014001400000000
#05216:00140014
#05212:13121400
#05214:0012001200140014
#0521c:00000012
#05317:0015001500000000
#05315:0000150000000015
#05319:15000015
#05314:0012001200000000
#05312:0000120015000012
#05316:0000000000150000
#0531c:0000000000120000
#06613:00000000001a00000000000000000000000000000000000000000000000000000000000000000000000000000000000000000000000000000000000000000000
#0581b:0013001300001300
#05812:2c00130013000013
#05817:00130000
#05816:0013001300001300
#05814:0000000000130000
#05819:0000000000130000
#0591b:1300130000130000
#05912:00130013
#05915:0000001600000013
#05918:0013
#05917:13
#06216:0000000013130000
#06212:1313000000000013
#0621b:00130000
#06217:0013000000000000
#06218:26
#06312:0000130000130000
#0631b:13130013
#06317:1313000000000000
#06315:0000001613000000
#06318:0000000000000013
#06412:13
#06416:0000000000000014
#06112:13000000130000000000000000130000
#06115:00000000000016000000161300000013
#0611b:00131300
#06118:0000000000001316
#06116:13
#06012:1c13001300001300
#06017:0013001300001300
#0601b:0000130013000013
#06016:00130000
#06019:0000000000130000
#06014:0000000000130000
#0101b:13
#01016:0000000000000014
#00458:16
#00452:0000006300000000
#00456:00230000
#0045b:0000000000000063
#00852:16
#0085b:0000000000000063
#01452:0000006300000000
#01457:0023
#01456:2300004400000000
#0155b:0000001300000000
#01552:0063003300000000
#01557:0063000000000000
#01556:00230000
#01956:62
#01952:0023003300000000
#0195b:0023004300000000
#01958:52
#02552:62620000
#02555:0023002300000000
#0255c:52520000
#02558:0023002300000000
#0285a:14
#02856:53
#02855:0000000000000053
#02857:0063
#02858:0000000000000063
#0285b:0000000000630000
#02852:0053000000000000
#02952:0000001300000023
#0295b:0000001300000000
#02957:0000000000000013
#03352:63630000
#03357:63630000
#03356:0063001300000000
#0335b:0063001300000000
#0305b:0000002300000000
#03056:0000001300000053
#03152:0053000000000000
#03156:0000005300000000
#03558:0000000000000016
#03552:0000000000000063
#0365b:0000000000000053
#03656:2363
#03652:0000000000230000
#04257:0000000023000033
#04252:0000000023000033
#04256:0000006300002300
#0425b:0000006300002300
#04254:0000000000530000
#04259:0000000000530000
#05558:46460000
#05552:36360000
#05456:0000000000220000
#05452:0000006300000000
#0545b:0000005300000000
#05458:0000000000220000
#05459:15
#05652:00660000
#05658:00660000
#05052:0000000000000063
#05056:0000000000000064
#05852:1c00000000000053
#0585b:0000005300000000
#05857:00230000
#01254:18
#0125b:0023
#01252:0000000000000023
#00552:23
#00556:23
#00956:23
#01152:16360000
#01158:16460000
#0135b:0000000000000053
#01356:0000000000000034
#01858:62
#01856:0000005200000000
#00652:0000000000000053
#0065b:0000005300000000
#00657:00230000
#0075b:23
#00757:23
#03257:63
#03252:3300000000530000
#0325b:0063000043000000
#03256:0053
#0345b:13
#03452:00140016
#03459:0015
#0415a:0044
#04152:0034
#04156:24
#04056:00000054
#0405a:0000000000000054
#0435b:0043000043000000
#04356:0043000000000000
#04352:0000003300000000
#01752:6200002200000000
#01756:00620000
#0175c:5200002200000000
#01758:00520000
#0395b:0063
#03956:2334
#03757:23
#03752:0053
#03756:0044
#0375b:0000000000000053
#0385b:0000000000230000
#03857:2353
#03852:0000000000000063
#02257:23
#02256:0000003423000000
#0225b:0000005300000000
#0235b:0053004300000000
#02356:0053000000000000
#02357:00230000
#02352:0000001300000000
#02156:0000000000000044
#02152:0000000000000063
#02054:18
#02052:0023
#0205b:0000000000000023
#0275b:0000004300000000
#02752:0000003300000000
#02758:23
#02755:23
#0265c:0000000000000062
#02652:0000000000000052
#02656:52
#02658:0000006200000000
#04456:00535300
#0445b:5300000000000053
#04452:3400000000230000
#04556:0053
#0455a:0044
#04557:23
#06552:16360000
#06558:16460000
#0035a:44
#00352:34
#04852:2313
#04856:00230000
#04854:0053005300000000
#0485b:0023
#04859:0000000000630063
#04857:00000023
#04952:2414
#04954:0054005400000000
#04956:00240024
#0495a:0024
#04958:0000000000640064
#0495b:13
#05156:2354000000000000
#0515a:24140000
#05152:0033000000000000
#0525a:2414
#05258:0064006400000000
#05256:00240024
#05252:1324
#05254:0000000000540054
#05357:0065006500000000
#05355:0000250000000025
#05359:25001565
#05352:14005515
#05356:0000000000250000
#06653:00000000005a00000000000000000000000000000000000000000000000000000000000000000000000000000000000000000000000000000000000000000000
#04652:6300000000000063
#04657:00636300
#0465b:0000000000230000
#04757:0063
#04752:0034
#04756:23
#0595b:23
#05957:23
#06252:0000000000000053
#06258:16
#06357:23
#0605b:0000000000000063
#06052:1c00006300000000
#06056:00230000
#06152:23
#06156:23
#06452:13
#06457:0013
#01652:0000000000230000
#0165b:0023000000000000
#01656:0053
#01657:63
#000330:13333333
#000370:0033000000330000
#001330:33
#001360:0034000000340000
#001320:00343434
#002320:34343434
#002360:0034003400340034
#003320:24
#0003a1:13333333
#000361:0000003300000033
#0013a1:34343434
#001361:0000003400000034
#0023a1:34343434
#002361:000000000000000000000000000000000000000000000000000000000000000000000000000000000000000000000000000000000000000000000000000000000000000000000000000000000000000000000000000000000000000000000000000000000000000000000000000000000000000000000000000000000000000000000000000000000000000000000000000000000000000000000000000000000000000000000000000000000000000000000000000000000000000000000000000000000000000000000000000000000000000000000000000000000000000000000000000000000000000000000000005400000000000000000000000000000000000000000000000000000000000000000000000000000000000000000000000000000000000000000000000000000000000000000000000000000000000000000000000000000000000000000000000000000000000000000000000000000000000000000000000000000000000000000000000000000000000000000000000000000000000000000000000000000000000000000000000000000000000000000000000000000000000000000000000000000000000000000000000000000000000000000000000000000000000000000000000000000000000000000000000000000000000000000000000000000000000000000000000000000000000000000000000000000000000000000000000000000000000000000000000000000000000000000000000000000000000000000000000000000000000000000000000000000000000000000000000000000000000000000000000000000000000000000000000000000000000000000000000000000000000000000000000000000000000000000000000000000000000000000000000000000000000000000000000000000000000000000000000000000000000000000000000000000000000000000000000000000000000000000000005400000000000000000000000000000000000000000000000000000000000000000000000000000000000000000000000000000000000000000000000000000000000000000000000000000000000000000000000000000000000000000000000000000000000000000000000000000000000000000000000000000000000000000000000000000000000000000000000000000000000000000000000000000000000000000000000000000000000000000000000000000000000000000000000000000000000000000000000000000000000000000000000000000000000000000000000000000000000000000000000000000000000000000000000000000000000000000000000000000000000000000000000000000000000000000000000000000000000000000000000000000000000000000000000000000000000000000000000000000000000000000000000000000000000000000000000000000000000000000000000000000000000000000000000000000000000000000000000000000000000000000000000000000000000000000000000000000000000000000000000000000000000000000000000000000000000000000000000000000000000000000000000000000000000000000000000000000000000000000000005400000000000000000000000000000000000000000000000000000000000000000000000000000000000000000000000000000000000000000000000000000000000000000000000000000000000000000000000000000000000000000000000000000000000000000000000000000000000000000000000000000000000000000000000000000000000000000000000000000000000000000000000000000000000000000000000000000000000000000000000000000000000000000000000000000000000000000000000000000000000000000000000000000000000000000000000000000000000000000000000000000000000000000000000000000000000000000000000000000000000000000000000000000000000000000000000000000000000000000000000000000000000000000000000000000000000000000000000000000000000000000000000000000000000000000000000000000000000000000000000000000000000000000000000000000000000000000000000000000000000000000000000000000000000000000000000000000000000000000000000000000000000000000000000000000000000000000000000000000000000000000000000000000000000000000000000000000000000000000000005400000000000000000000000000000000000000000000000000000000000000000000000000000000000000000000000000000000000000000000000000000000000000000000000000000000000000000000000000000000000000000000000000000000000000000000000000000000000000000000000000000000000000000000000000000000000000000000000000000000000000000000000000000000000000000000000000000000000000000000000000000000000000000000000000000000000000000000000000000000000000000000000000000000000000000000000000000000000000000000
#0033a1:24
#004361:00132300
#004321:0000003300000000
#004321:0000000000000013
#005321:53
#005371:0023000000000000
#0043b0:0000000000000013
#005360:53
#0053b0:0023000000000000
#005380:0013
#005360:0000000000230000
#005370:00000013
#005350:0000000000000023
#006370:00132300
#0063b0:0000003300000000
#0063b0:0000000000000013
#0073b0:53
#007360:0023000000000000
#006321:0000000000000013
#007371:53
#007321:0023000000000000
#0073b1:0000000013230000
#008361:00130000
#0083b1:0000002300000000
#008370:0000001300000000
#008320:0023
#0083b0:0000000000130000
#008360:00000023
#008321:00000013
#008371:0000000000000023
#0083b0:0000000000000013
#009360:53
#0093b0:0023000000000000
#009350:0013
#009370:0000000000230000
#009360:00000013
#009380:0000000000000023
#010360:13230000
#010320:0033000000000000
#010371:0013002300000000
#0103b1:00330000
#010320:0000001300000000
#010360:0023
#0103b1:00001323
#010371:0000000000330000
#010320:0000000000130023
#010360:00000033
#011360:0000000014240000
#0123b0:0013
#012360:00000023
#012320:0000000000000013
#013370:0023000000000000
#0133b0:0000000000000013
#014360:53
#0143b0:0023000000000000
#014320:0000001300230000
#014370:0053
#015320:0013002300000000
#015360:00330000
#015371:0013000000000000
#0153b1:0000332300000000
#0163b1:1333000000000000
#016361:00230000
#016370:13
#016320:0033230000000000
#016320:0000000013330000
#016370:00000023
#016361:0013
#0163b1:0000000000332300
#017321:1200003200000000
#017361:0032320022000000
#0173c0:1200003200000000
#017380:0032320022000000
#018360:1222000000000000
#018381:12
#0183c1:0022000000000000
#018381:0000001222000000
#018360:0000001200000000
#018320:0022
#019380:12220000
#0193b0:0053000000000000
#019361:12220000
#019321:0053000000000000
#020321:0013
#020371:00000023
#0203b1:0000000000000013
#021361:0023000000000000
#021321:0000000000000013
#022371:53
#022321:0023000000000000
#0223b1:0000001300230000
#022361:0053
#0233b1:0013002300000000
#023371:00330000
#023360:0013000000000000
#023320:0000332300000000
#024360:13
#0243b0:0023000000000000
#024361:0013000000000000
#024321:00230000
#024360:00130000
#0243b0:0000002300000000
#024370:0013
#024320:0000000000230000
#024371:0000000000130000
#0243b1:00000023
#024370:00000013
#024320:0000000000000023
#025320:12322200
#025350:0033003300000000
#0253c1:12322200
#025381:0033003300000000
#026381:1222000000000000
#026360:12
#026320:0022000000000000
#026360:0000001222000000
#026381:0000001200000000
#0263c1:0022
#0263c1:0000000000000012
#027381:53
#0273c1:0022000000000000
#026320:0000000000000012
#027350:53
#027320:0022000000000000
#028360:13230000
#028320:0053000000000000
#028370:00001323
#0283b0:0000000000530000
#028350:0000000000000013
#028320:00000000000000000000000000000053
#029320:0023000000000000
#028381:0000000000000013
#0283b1:00000000000000000000000000000053
#0293b1:0023000000000000
#029321:0000000000000013
#030361:23
#0303b1:0000001300000000
#030371:0023
#030361:0000000000000013
#031321:23
#031321:0013000000000000
#031361:00230000
#031361:0000001300000000
#031321:0023
#032371:13230000
#0323b1:0053000000000000
#032361:00001323
#032321:0000000000530000
#033321:13330000
#033361:0033002300000000
#033370:13330000
#0333b0:0033002300000000
#034360:1323000000000000
#034370:0000142400000000
#034340:0000000015250000
#034380:0000000000001626
#035320:0000000000000013
#036360:53
#036320:0023000000000000
#036360:00001323
#036320:0000000000530000
#0363b0:0000000000000013
#037370:53
#0373b0:0023000000000000
#037320:0013
#037360:00000023
#0373b0:0000000000000013
#038370:53
#0383b0:0023000000000000
#038370:00001323
#0383b0:0000000000530000
#038320:0000000000000013
#039360:53
#039320:0023000000000000
#0393b0:0013
#039370:00000023
#039360:0000000000000014
#0403a0:24
#039321:0000000000000014
#040361:24
#040361:0014000000000000
#040321:00240000
#0403a0:0014000000000000
#040360:00240000
#040360:00000014
#0403a0:0000000000000034
#041360:53
#0413a0:0024000000000000
#0413b0:00000013
#041370:0000000000000033
#0423b0:23
#041361:00000013
#041321:0000000000000023
#042360:0000001300005300
#042320:0000000053000023
#042340:0000000000330000
#0423b1:0000001300005300
#042371:0000000053000023
#042391:0000000000330000
#043321:00000014
#043341:00000000000000000000000000340034
#043361:0000000000000034
#044321:24
#0443b0:13
#044370:0023000000000000
#044360:00130000
#044320:0000002300000000
#044360:00001323
#044320:0000000000330000
#0443b0:0000000000000013
#045370:33
#0453b0:0023000000000000
#045360:0013
#045320:00000023
#046320:13
#046360:0023000000000000
#046370:00130000
#0463b0:0000002300000000
#046370:00001323
#0463b0:0000000000330000
#046320:0000000000000013
#047360:33
#047320:0023000000000000
#047370:0013
#0473b0:00000023
#048320:1323
#048340:0053005300000000
#048360:00330000
#0483b1:0013
#048391:0000000000530053
#048371:00000033
#0493b1:23
#049320:1424
#049340:0054005400000000
#049360:00340000
#0493a1:0014
#049381:0000000000540054
#049361:00000034
#0503a1:24
#050361:0000001400240000
#050321:0000000000000013
#051361:53
#051321:0023000000000000
#050360:0000000000000014
#0513a0:54240000
#051360:0034000000000000
#0523a0:1424
#052380:0054005400000000
#052360:00340000
#052321:0014
#052341:0000000000540054
#052361:00000034
#053321:24
#053390:1525
#053370:0055005500000000
#053350:00350000
#053321:00001525
#053361:0000000000550000
#053390:00000015
#053350:0000000000000055
#054390:25
#054320:0000001300000000
#054360:0000000000520000
#055320:26
#0543b1:0000001300000000
#054381:0000000000520000
#055381:26
#056381:00160000
#056321:00000000000000560000000026000000
#056320:00160000
#056380:00000000000000560000000026000000
#058370:00132300
#0583b0:0000003300000000
#0583b0:0000000000000013
#0593b0:53
#059360:0023000000000000
#058321:0000000000000013
#059371:53
#059321:0023000000000000
#059351:0013
#059371:0000000000230000
#059361:00000013
#059381:0000000000000023
#060361:00132300
#060321:0000003300000000
#060321:0000000000000013
#061321:53
#061371:0023000000000000
#0603b0:0000000000000013
#061360:53
#0613b0:0023000000000000
#061320:0000000013230000
#062370:00130000
#062320:0000002300000000
#062361:0000001300000000
#0623b1:0023
#062321:0000000000130000
#062371:00000023
#0623b0:00000013
#062360:0000000000000023
#062321:0000000000000013
#063371:53
#063321:0023000000000000
#063381:0013
#063361:0000000000230000
#063371:00000013
#063351:0000000000000023
#064371:13230000
#0643b1:0033000000000000
#064360:0013002300000000
#064320:00330000
#0643b1:0000001300000000
#064371:0023
#064320:00001323
#064360:0000000000330000
#0643b1:0000000000130023
#064371:00000033
#065381:0000000016260000
#066331:1a000000005a00000000000000000000000000000000000000000000000000000000000000000000000000000000000000000000000000000000000000000000
#066321:005a005a000000000000000000000000000000000000000000000000000000000000000000000000000000000000000000000000000000000000000000000000
#066341:005a5a0000000000000000000000000000000000000000000000000000000000
#070371:22
