This file was generated by Ched 2.7.0.0.
#TITLE ""
#ARTIST ""
#DESIGNER ""
#DIFFICULTY 0
#PLAYLEVEL
#SONGID ""
#WAVE ""
#WAVEOFFSET 0
#JACKET ""
#REQUEST "ticks_per_beat 480"
#00002: 4
#BPM01: 132
#00008: 01
#TIL00: ""
#HISPEED 00
#MEASUREHS 00
#00414:00140000
#00418:00001414
#0041a:24
#00410:41
#00512:14
#00514:00001414
#00518:00140000
#0061a:14
#00614:00140000
#00618:0014
#00612:00000014
#0071a:14
#00714:00140000
#00718:0014
#00818:00140000
#00814:00001414
#00812:24
#0091a:14
#00914:00140000
#00918:00001414
#01012:14
#01018:00140000
#01014:0014
#0101a:00000014
#01214:00140000
#01218:24
#01210:41
#01314:14
#01318:00140000
#0141a:14
#01414:00140000
#01418:0014
#01412:00000014
#0151a:14
#01514:00140000
#01518:0014
#01512:00000014
#0171a:14
#01716:00140000
#01712:0014
#0181a:14
#01812:00140000
#01818:0014
#01814:00000014
#0191a:14000014
#01912:00140000
#02018:00140000
#02014:24
#02010:41
#02118:14
#02114:00140000
#02212:14
#02218:00140000
#02214:0014
#0221a:00000014
#02312:14
#02318:00140000
#02314:0014
#0231a:00000014
#02512:14
#02516:00140000
#0251a:0014
#02612:14
#0261a:00140000
#02614:0014
#02618:00000014
#02712:14000014
#0271a:00140000
#02710:00000041
#02814:00140000
#02818:0014
#02812:00000014
#0281f:11
#0281a:24
#02918:14
#02914:00140000
#0291a:0014
#03012:14343400
#03015:00000014
#03218:14
#03214:00140000
#0321a:0014
#03212:00000014
#0331a:00000014
#03318:24240000
#03314:0024002400000000
#03414:14
#03418:00140000
#03412:0014
#0341a:00000014
#03612:00160000
#03618:26001414
#03614:0000000000140000
#03610:0041
#03512:00000016
#03514:24240000
#03518:0024002400000000
#0351f:0000000000000021
#03712:16
#03718:00160000
#03818:16001414
#03812:00160000
#03814:0000000000140000
#03912:16
#03918:00160000
#0401a:14
#04012:00140000
#04018:0014
#04014:00000014
#0411a:14
#04112:00140000
#04119:0014
#04113:0014
#04212:14
#0421a:00140000
#04214:0014
#04218:00000014
#04312:14
#0431a:00140000
#04313:0014
#04319:0014
#04418:0000160000140000
#04414:00001414
#04412:26
#04410:41
#04518:16
#04512:00160000
#04612:16
#04618:0000160000140000
#04614:00001414
#04718:16
#04712:00160000
#04812:14
#0481a:00140000
#04814:0014
#04818:00000014
#04912:14
#0491a:00140000
#04913:0014
#04919:0014
#0521a:14
#05212:00140000
#05218:0014
#05214:00000014
#0531a:14
#05312:00140000
#05319:0014
#05313:0014
#0541a:14
#05414:00140000
#05418:0014
#05412:00000014
#05518:26000014
#05512:00260000
#05614:14
#0561a:00140000
#05717:0014000000000000
#0501a:14
#05014:00140000
#05018:0014
#05012:00000014
#05814:00140000
#0581a:24001414
#05912:14001414
#05918:00140000
#0601a:14
#06014:00140000
#06018:0014
#06012:00000014
#0611a:14
#06114:00140000
#06118:0014
#06218:00140000
#06212:24001414
#0631a:14001414
#06314:00140000
#06412:14
#06418:00140000
#06414:0014
#0641a:00000014
#06512:26000016
#06518:00260000
#05112:00260000
#05118:26
#01112:26
#01118:00260000
#03112:34340000
#0045a:14
#00852:14
#03055:00000024
#03052:64
#03658:16
#04452:16
#05552:00160000
#05558:16
#0585a:14
#0565a:00540000
#05757:0024000000000000
#06252:14
#06552:16
#06558:00160000
#01158:00160000
#01152:16
#000380:14
#000390:00340000
#0003a0:00003424
#001340:14
#001330:00340000
#001320:00003424
#002380:14
#002390:00340000
#0023a0:00003434
#0033a0:24
#0123a0:00001424
#013320:00001424
#0163a0:14240000
#016340:00001424
#020320:00001424
#0213a0:00001424
#024320:14240000
#024380:00001424
#030320:14343400
#030350:00000034
#031320:34342400
#037320:00001626
#039320:00001626
#045380:00001626
#047380:00001626
#0563a0:00140000
#057370:0054000000000000
#0583a0:24
#066380:16
#0703a0:24
