This file was generated by Ched 2.7.0.0.
#TITLE ""
#ARTIST ""
#DESIGNER ""
#DIFFICULTY 0
#PLAYLEVEL
#SONGID ""
#WAVE ""
#WAVEOFFSET 0
#JACKET ""
#REQUEST "ticks_per_beat 480"
#00002: 4
#BPM01: 158
#00008: 01
#TIL00: ""
#HISPEED 00
#MEASUREHS 00
#0021a:14
#00314:14
#0041a:14
#00514:14
#01018:14
#01112:14
#01218:14
#01312:14
#01818:14
#01810:41
#01914:14
#0201a:14
#02112:14
#02218:14
#02314:14
#0241a:14
#02512:14
#02510:41
#02618:14
#0261f:11
#02718:14
#02814:14
#02914:14
#03412:0016
#03418:26
#0341f:21
#03518:16
#03512:0016
#03510:41
#03818:1616
#03912:1616
#04218:0016
#04212:26
#04312:16
#04318:0016
#04612:1616
#04610:41
#04718:1616
#05013:14
#05019:14
#05118:14
#05214:14
#05319:14
#05313:14
#0551a:14
#05510:00410000
#05614:14
#05912:14
#06018:14
#06318:14
#06310:00410000
#06414:14
#06714:14
#06818:14
#006380:14
#007380:24
#008320:14
#009320:24
#0143a0:14
#0153a0:24
#016340:14
#017340:24
#0303a0:14
#031380:34
#0323a0:24
#036380:1626
#037320:1626
#040380:16
#040360:0036
#041380:36
#041360:0026
#044320:1626
#045380:1626
#048320:16
#048340:0036
#049320:36
#049340:0026
#0573a0:14
#0583a0:24
#061320:14
#062320:24
#065380:14
#0663a0:24
#069340:14
#070320:24
#071380:140000340000340034003400
#072380:340034003400340000240000
