This file was generated by Ched 2.7.0.0.
#TITLE ""
#ARTIST ""
#DESIGNER ""
#DIFFICULTY 0
#PLAYLEVEL
#SONGID ""
#WAVE ""
#WAVEOFFSET 0
#JACKET ""
#REQUEST "ticks_per_beat 480"
#00002: 4
#BPM01: 158
#00008: 01
#TIL00: ""
#HISPEED 00
#MEASUREHS 00
#00212:00130000
#00215:0013
#00218:00000013
#0031b:13000013
#00312:1313
#00314:00000013
#00317:0013
#00416:13
#00417:00130000
#00419:0013
#0041b:00000013
#00414:00130000
#00412:0013
#00517:00130000
#00519:0013
#0051b:00000013
#00512:00130000
#00514:0013
#00516:00000013
#00618:00131300
#00615:00000013
#00715:13000013
#00718:00131300
#0071b:00000013
#00815:00130013
#00818:1313
#00812:13
#0081b:00000013
#00918:00001313
#00912:00002323
#0181b:000013
#01816:00000013
#01817:000000000000000000000013
#01812:13
#01815:00131300
#01818:13
#01810:41
#01918:00131300
#01915:00001323
#02215:000000130000000013000000
#0221b:00000013
#02218:230000000000130000000013
#02212:13
#02312:1313
#02318:00130000
#0231b:0013
#02315:00000013
#02418:1313
#0241b:00130000
#02415:1313
#02412:00000013
#0251b:1323
#02515:0013
#02518:00130013
#02512:13000023
#02510:41
#0261b:00130000
#02618:00001313
#02615:00130000
#0261f:11
#02718:13000013
#02712:13
#02715:00131300
#02815:13001323
#02818:00132313
#0281b:23
#02812:00230000
#0291b:00130000
#02919:0013
#02917:00000013
#02912:16000023
#02916:00230000
#02914:0023
#03118:00001323
#03115:00002313
#03112:16
#03317:00000013
#03312:00000013
#03417:0013
#03419:00000013
#03416:13
#0341b:23
#0341f:21
#0351b:13
#03519:00130000
#03517:0013
#03515:000013
#03518:00000013
#03516:13
#03512:000000000013130000000000
#03510:41
#03618:000000130000000000000013
#03615:00001313
#0361b:000000131300
#03612:13
#03712:13
#03718:000000130000000013130000
#0371b:0013
#03715:00001313
#0381b:13000013
#03818:0013
#03815:00000013
#03812:0013
#03912:13130000
#03915:00001313
#03918:00000013
#0401b:13130000
#04018:000000000013000000130013
#04015:000000131300
#04112:13
#0411b:000000000013130000000000
#04117:000000000000000000000013
#04619:0013
#0461b:00000013
#04617:00130000
#04612:13230000
#04614:0023
#04616:00000023
#04610:41
#0481b:000000130000000013000000
#04818:0013
#04815:00130013
#04812:0013
#04918:000000130000130000000013
#0491b:000013
#04915:00000013
#0501b:0013
#05018:00000013
#05012:2323
#05115:130000131300
#05112:00130000
#05118:00000013
#0511b:2323
#05218:000013000000000000130000
#05215:000000130000000000000013
#05212:2323
#0521b:0023
#05318:130013
#05315:000000000013000000130000
#05517:00130000
#05519:0013
#0551b:00000013
#05512:000000130000000000000013
#05516:000013
#05510:00410000
#05617:13000013
#05619:00130000
#0561b:0013
#05612:00000013
#05616:0013
#05614:001300000000
#05718:000000130000000013000000
#05715:0013
#05712:00000013
#05717:000000000000000000000013
#0591b:00130000
#05919:0013
#05917:00000013
#05912:000013
#05916:000000000000000000000013
#0601b:1313
#06018:00130013
#06015:0013
#06012:000013000000000000130000
#06118:00130000
#0611b:00001313
#06112:00130000
#06115:0000000033133300
#06218:13
#06216:00230000
#06214:0023
#06212:00000023
#06918:00130013
#06915:0013
#06912:00130000
#0701b:13
#07018:00131300
#07015:13
#0101b:00130000
#01018:0013
#01015:00000013
#01112:13000013
#0111b:1313
#01119:00000013
#01116:0013
#01217:13
#01216:00130000
#01214:0013
#01212:00000013
#01219:00130000
#0121b:0013
#01316:00130000
#01314:0013
#01312:00000013
#0131b:00130000
#01319:0013
#01317:00000013
#0141b:00131300
#01412:00000013
#01512:13000013
#01518:00000013
#0151b:0013
#01515:0013
#01618:00130013
#01615:1313
#0161b:13
#01612:00000013
#01715:00001313
#0171b:00002323
#02012:000013
#02017:00000013
#02016:000000000000000000000013
#02018:00131300
#0201b:13
#02015:23
#02115:00131300
#02118:00001323
#03012:00130000
#03014:0013
#03016:00000013
#03018:16
#03017:00230000
#03019:0023
#0301b:00000023
#04216:0013
#04214:00000013
#04217:13
#04212:23
#04312:13
#04314:00130000
#04316:0013
#04318:000013
#04315:00000013
#04317:13
#0431b:000000000013130000000000
#04415:000000130000000000000013
#04418:00001313
#04412:000000131300
#0441b:13
#0451b:13
#04515:000000130000000013130000
#04512:0013
#04518:00001313
#04718:0014
#0471a:00000014
#04716:00140024
#04712:00240000
#04714:0024
#06515:000000130000000013000000
#06518:0013
#0651b:00000013
#06516:000000000000000000000013
#07118:00130000
#0711b:13
#07112:0014
#07114:000014
#07116:000000000014
#0721a:14000012
#07218:001400000000
#07216:001400
#06712:00130000
#06714:0013
#06716:00000013
#0671b:000013
#06717:000000000000000000000013
#06812:1313
#06815:00130013
#06818:0013
#0681b:000013000000000000130000
#06316:00130000
#06314:0013
#06312:00000013
#0631b:000000130000000000000013
#06317:000013
#06310:00410000
#06416:13000013
#06414:00130000
#06412:0013
#0641b:00000013
#06417:0013
#06419:001300000000
#06612:00002323
#06617:00000023
#06616:23
#06614:00230000
#05817:23
#05819:00230000
#0581b:00002323
#00357:0053
#0035b:00000023
#00454:00530000
#00452:0023
#0075b:00000053
#00858:23
#01156:0063
#01152:00000023
#01259:00630000
#0125b:0023
#01552:13000063
#01655:23
#01958:0053
#02155:0063
#02352:53
#0235b:0063
#02455:5313
#02458:1363
#0345b:13
#03456:53
#03558:00000053
#03752:53
#03755:00000053
#03852:13
#0385b:13000053
#03955:00000053
#04152:53
#04156:0013
#04355:00000063
#0455b:63
#04558:00000063
#04257:63
#04252:13
#04656:00000053
#0465b:00000053
#0475a:00000054
#04756:00000054
#0485b:000053
#04855:00000053
#05158:00000053
#05856:00000013
#06152:00530000
#06155:0000000000230000
#06657:00000013
#07055:53
#04958:13
#04952:13
#003370:0013
#0033b0:00000053
#004390:23
#004340:00130000
#004320:0053
#004360:00000023
#006320:00132300
#0063b0:00000013
#0073b0:23
#007320:00132300
#0073b0:00000013
#008380:53
#0083b0:00230000
#011360:0013
#011320:00000053
#012340:23
#012390:00130000
#0123b0:0053
#012370:00000023
#014350:00132300
#014380:00000013
#015380:23
#015320:00000013
#016350:53
#016320:00230000
#019320:13230000
#019380:0013
#0193b0:00000023
#0213b0:13230000
#021350:0013
#021320:00000023
#023320:13
#023350:00230000
#0233b0:0013
#023380:00000023
#024350:13
#024320:00230000
#024380:0013
#0243b0:00000023
#026320:0013
#026350:00000023
#0273b0:00130000
#027380:0023
#034360:13
#034320:0023
#035380:00000013
#0363b0:23
#037320:13
#037350:00230000
#037350:00000013
#038320:23
#0383b0:00000013
#039380:00230000
#039350:00000013
#040320:00230000
#041320:13
#041360:0023
#042370:13
#0423b0:0023
#043350:00000013
#044320:23
#0453b0:13
#045380:00230000
#045380:00000013
#0463b0:23
#046360:00000013
#047320:23
#0463b1:00000013
#047371:23
#047361:00000014
#048321:24
#0473a0:00000014
#048360:24
#0483b0:000013
#049380:23
#048351:00000013
#049321:23
#049351:00132300
#051381:00000013
#0523b1:23
#053381:000000130023000000000000
#058321:13
#058361:00003323
#061321:00130000
#061351:0000000033533300
#062321:23
#0623b1:00130000
#062391:0033
#062371:00000023
#0663b1:13
#066371:00003323
#070351:13
#070321:0023
#072341:00001222
