This file was generated by Ched 2.7.0.0.
#TITLE ""
#ARTIST ""
#DESIGNER ""
#DIFFICULTY 0
#PLAYLEVEL
#SONGID ""
#WAVE ""
#WAVEOFFSET 0
#JACKET ""
#REQUEST "ticks_per_beat 480"
#00002: 4
#BPM01: 158
#00008: 01
#TIL00: ""
#HISPEED 00
#MEASUREHS 00
#0021b:00130000
#00215:0013
#00218:00000013
#00312:1313
#00317:00000013
#00414:13
#00419:00130000
#00416:0013
#0041b:00000013
#00517:00130000
#00519:0013
#0051b:00000013
#00512:00130000
#00514:0013
#00516:00000013
#0061b:00130000
#00618:0013
#00612:00000013
#00715:13
#0071b:00130000
#00718:00001313
#00712:00000013
#00818:0013
#00815:13000013
#0081b:13
#01815:000000130000000013000013
#01818:00001313
#0181b:13
#01810:41
#02215:000000130000000013000013
#02218:00001313
#02318:13
#02315:0013
#0251b:1323
#02515:0013
#02518:00000013
#02512:13000023
#02510:41
#0261b:00130000
#02618:0013
#02615:00000013
#02612:00130000
#0261f:11
#02718:1313
#0271b:00130000
#02715:00000013
#0291b:00130000
#02919:0013
#02917:00000013
#02916:00230000
#02914:0023
#02912:00000023
#03119:00001323
#03114:00002313
#03318:00000013
#03312:00000013
#03418:0013
#03415:23000013
#03412:0013
#0341b:23
#0341f:21
#03515:00131300
#03518:130013
#03512:00000013
#0351b:000000000013000000000000
#03510:41
#03715:130013
#03718:00001313
#03818:0013
#03812:0013
#03815:00000013
#0381b:00000013
#03915:00001313
#0391b:00000013
#0401b:000000000013000000000000
#04015:00001313
#04018:000000000000000013000013
#04112:13
#04118:000000000000000000000013
#04115:000000000033000000000000
#0461b:0013
#04618:00130013
#04612:00230023
#04615:0023
#04610:41
#0481b:00130013
#04818:0013
#04815:00130013
#04812:0013
#04915:00001313
#04918:000000130000000000000013
#0491b:000013
#05018:00000013
#05012:2313
#0501b:0023
#05112:00130000
#05115:23002313
#05118:000013
#0511b:1313
#05218:001300000000
#05215:000000130000000000000013
#0521b:00000013
#05318:130013
#05315:00000013
#05517:00130000
#05519:0013
#0551b:00000013
#05512:00130000
#05510:00410000
#05617:13000013
#05619:00130000
#0561b:0013
#05612:13000013
#05616:0013
#0571b:00130000
#05718:0013
#05715:00000013
#0591b:00130000
#05919:0013
#05917:00000013
#05912:00000013
#0601b:1313
#06018:00130013
#06015:0013
#06012:00000013
#06915:0013
#06918:00000013
#06912:00130000
#0191b:0013
#01915:0013
#0241b:13
#02412:0013
#02415:13
#02418:0013
#03012:00130000
#03014:0013
#03016:00000013
#03017:00230000
#03019:0023
#0301b:00000023
#0471a:0014
#04718:00140014
#04712:00240024
#04714:0024
#07015:13
#07115:00130000
#07118:130014
#07112:0014
#07114:000000000014
#0721a:14
#07214:001400000000
#07218:001400
#01012:00130000
#01018:0013
#01015:00000013
#0111b:1313
#01116:00000013
#01219:13
#01214:00130000
#01217:0013
#01212:00000013
#01316:00130000
#01314:0013
#01312:00000013
#0131b:00130000
#01319:0013
#01317:00000013
#01412:00130000
#01415:0013
#0141b:00000013
#01518:13
#01515:00001313
#0151b:00000013
#01615:0013
#01618:13000013
#01612:13
#02018:000000130000000013000013
#02015:00001313
#02112:00001313
#02118:00001313
#03612:0013
#03615:00000013
#03618:000000000000000013000013
#0361b:00130000
#04215:0013
#04218:00000013
#0421b:0013
#04212:23
#04318:00131300
#04315:130013
#0431b:00000013
#04312:000000000013000000000000
#04518:130013
#04515:00001313
#0441b:0013
#04418:00000013
#04415:000000000000000013000013
#04412:00130000
#06316:00130000
#06314:0013
#06312:00000013
#0631b:00130000
#06310:00410000
#06416:13000013
#06414:00130000
#06412:0013
#0641b:13000013
#06417:0013
#06512:00130000
#06515:0013
#06518:00000013
#06712:00130000
#06714:0013
#06716:00000013
#0671b:00000013
#06812:1313
#06815:00130013
#06818:0013
#0681b:00000013
#0091b:00002323
#01712:00002323
#02812:23
#02815:00230000
#02818:0023
#0281b:00000023
#05812:23
#05815:00230000
#05818:0023
#0581b:00000023
#0621a:00240000
#06216:0024
#06212:00000024
#0661b:23
#06618:00230000
#06615:0023
#06612:00000023
#00758:00000063
#00752:00000063
#0085b:23
#00855:23
#0195b:0063
#01955:0063
#02358:53
#02355:0063
#0245b:53
#02452:0063
#02455:53
#02458:0053
#0345b:13
#03455:13
#03552:00000063
#03758:00000063
#03755:63
#0385b:13000053
#03855:00000053
#0395b:00000053
#03955:00000053
#04152:53
#04155:0013
#04252:13
#04652:00000053
#04658:00000053
#04758:00000054
#04752:00000054
#0485b:00000053
#04855:00000053
#05155:00000053
#07055:53
#04958:13
#04952:13
#01555:00000053
#01558:13
#0155b:00000053
#01652:23
#01658:23
#02152:00000053
#02158:00000053
#0435b:00000053
#04555:00000053
#04558:53
#0585b:00000013
#06652:00000013
#007380:00000013
#0083b0:53
#008380:00230000
#007321:00000013
#008351:53
#008321:00230000
#015351:00000013
#016321:53
#016351:00230000
#0153b0:00000013
#016380:53
#0163b0:00230000
#019380:13230000
#0193b0:0013
#020380:23
#019351:0013
#020321:23
#021351:13230000
#021321:00000013
#022351:23
#021380:00000013
#0223b0:23
#023380:13
#0233b0:00230000
#023350:0013
#023320:00000023
#0243b0:13
#024380:00230000
#024351:13
#024321:00230000
#024321:0013
#024351:00000023
#024380:0013
#0243b0:00000023
#035320:00000013
#036350:23
#037350:13
#037320:00230000
#037380:00000013
#0383b0:23
#038350:00000013
#039320:00230000
#0383b1:00000013
#039381:00230000
#0393b1:00000013
#040381:00230000
#039350:00000013
#040320:00230000
#041320:13
#041350:000000000033230000000000
#0433b0:00000013
#044380:23
#045380:13
#0453b0:00230000
#045350:00000013
#046320:23
#046320:00000013
#047350:23
#046381:00000013
#0473b1:23
#047321:00000014
#048341:24
#047380:00000014
#0483a0:24
#0483b0:00000013
#049380:23
#048351:00000013
#049321:23
#051351:00000013
#052321:23
#053351:000000130023000000000000
#061381:00130000
#0613b1:00003333
#062381:23
#061320:00130000
#061350:00003333
#062320:23
#070350:13
#070320:0023
#072320:00001424
