This file was generated by Ched 2.7.0.0.
#TITLE ""
#ARTIST ""
#DESIGNER ""
#DIFFICULTY 0
#PLAYLEVEL
#SONGID ""
#WAVE ""
#WAVEOFFSET 0
#JACKET ""
#REQUEST "ticks_per_beat 480"
#00002: 4
#BPM01: 158
#00008: 01
#TIL00: ""
#HISPEED 00
#MEASUREHS 00
#00212:00120000
#00214:0012
#00216:00120012
#00218:0012
#0021a:00000012
#0031b:1300000000120000
#00312:1313
#00314:00000013
#00318:0012
#0031a:00000012
#00319:0000000000000012
#00416:13
#00417:00130000
#00419:0013
#0041b:00000013
#00412:00120000
#00415:0000001200000000
#00414:0012
#00413:0000000000120000
#00714:00000013
#0071b:00000013
#0071a:12
#0071c:00120000
#00712:18151a1600000000
#00814:00130000
#0081c:00001212
#00812:13001212
#00816:13
#0091b:00001313
#00918:12
#00916:00120000
#00912:00002323
#0181b:000000130000000013130000
#01816:00000013
#01817:000000000000000000000013
#01812:1313
#01815:00130000
#01818:1313
#01810:41
#0191b:000013130000000000000000
#01912:0013
#01917:130000000013130000000000
#01915:00000023
#02215:000000130000000013130000
#0221b:000000130000000000130013
#02218:2313
#02212:1313
#02312:130000000013130000000000
#02318:000013130000000000000000
#0231b:1313
#02315:000000000000000013130000
#02418:130000130013
#0241b:000013130000000000000000
#02415:130000000000130000000013
#02412:000000000000000013130000
#0251b:1323
#02516:00001414
#02512:13000023
#02518:000000130000000000000013
#02515:001300000000
#02510:41
#0261b:000000130000000013130000
#02618:000000000000130000000013
#02615:130000130000000000001300
#0261f:11
#02712:1313
#02718:000000130000000000130013
#0271b:0013
#02715:001300001313
#02815:130000000000130000231300
#02818:00132313
#0281b:230013
#02812:000000230000000000000013
#0291b:000013130000000000130000
#02918:160000000000131300000013
#02915:00230023
#02912:0023
#03118:000000001300130000230000
#03112:001300001300
#03115:16132313
#0311b:000000000013000000000000
#0341a:2414
#03412:00130013
#03416:130000140000000000140014
#0341f:21
#0351b:13
#03519:00130000
#03517:0013
#03516:14
#03512:000000000014140000000000
#03514:000014140000000000000000
#0351a:000000000000000014140000
#03515:00000013
#03510:41
#03618:000000130013000013000000
#03615:000013000000130000130013
#0361b:0013
#03617:13
#03712:130000131300
#03718:13130013
#0371b:001300130000
#03715:000000000013000000130013
#03812:130000000000130000000013
#03818:001300130000
#03815:00130013
#0381b:00000013
#03912:1313
#0391b:000000000000000013130000
#03916:00000013
#03915:000013130000000000000000
#03918:000000000013130000000013
#0401b:00130013
#04018:130000000013000013000000
#04012:0013
#04015:000000130000001300000013
#0411b:000000000000130023230000
#04117:000000000013000000000013
#04118:13
#04112:001300000000000023230000
#04116:001300000000
#0411a:00130000
#04113:001300
#04619:0013
#04617:00130000
#0461b:13000013
#04618:000000000013
#04615:000000000000000000000013
#04612:00230000
#04614:0023
#04616:00000023
#04610:41
#0481b:130000130000000013000000
#04818:001300000000130000000000
#04812:000000130000000013130000
#04815:000013000013000000000000
#04918:000000120000120000000012
#0491c:000000000000000012120000
#04916:00000012
#0501c:0012
#05019:00000012
#05018:12
#05016:00120000
#05015:00000012
#05012:2222
#05115:12
#05112:00120000
#05116:000000000000120012120000
#05118:00000012
#05119:00120000
#0511c:2222
#05218:000012000000000000120000
#05216:000000120000000000000012
#05212:2222
#0521c:0022
#05318:12
#05314:000000120012000000000000
#05317:000000000000000012120000
#0531a:00000012
#05517:00130000
#05519:0013
#0551b:00000013
#05512:000000130000000000000013
#05516:000013
#05514:000000000013000000000000
#05510:00410000
#05617:13
#05619:001300000000
#0561b:000013130000
#05618:000000000013000013130000
#05615:0013
#05614:001300000000000000000000
#05616:00130000
#05718:000000130000000013000000
#05715:001300130000
#05712:130000000000000013130000
#05717:000000000000000000000013
#0571b:130000000013000000000000
#05817:23000013
#05814:000013230000000000000000
#0581b:000000000013230000000000
#05812:000000000000000013230000
#0591b:13130013
#05912:1313
#05915:000000001300000013000013
#05918:000000000013001300000000
#0601b:13001313
#06018:000000130013000000000000
#06012:000013000000130000130000
#06015:001313
#06118:000000130000001300000000
#0611b:13001313
#06112:13
#06115:000000000000000013000013
#06218:13
#0621b:00130000
#06219:0013
#06217:00000013
#06216:00230000
#06214:0023
#06212:00000023
#06918:000000130013000000130013
#06915:000000131300
#06912:13130000
#0691b:13
#0141a:00141400
#01412:00130014
#01416:1200001300000000
#01417:00000013
#0141b:0000000000000013
#01512:14001313
#0151b:0013
#01519:00000013
#0201b:1313
#02012:000000130000000013130000
#02017:00000013
#02016:000000000000000000000013
#02018:00130000
#02015:2313
#03012:160000130000130013000000
#03015:000000001300000000130000
#03018:000000230013000000231300
#0301b:000000000000230000000013
#04714:0014
#04716:00140024
#04712:13000014
#04715:001300000000000000001300
#04718:000013000000240000000013
#0471a:00240000
#07015:13
#0701b:13
#0711c:12120000
#07112:0014
#07114:000000000000000014000012
#07116:120000120000000000001400
#07118:000000000000001200000000
#0711a:00000012
#0721a:140000000012000000000000
#07218:001400000000
#07216:001200001400000000000000
#0721c:00001212
#07214:00120000
#00516:12
#00512:00161412
#0051c:00120000
#0051a:0014
#00518:00000016
#0061c:0012
#0061a:00000012
#00612:00001c161a151814
#0101c:00120000
#0101a:0012
#01018:00120012
#01016:0012
#01014:00000012
#01112:13
#0111b:1313
#01119:00000013
#01116:0012
#01113:0000000000120000
#01114:00000012
#01115:0000000000000012
#01217:13
#01216:00130000
#01214:0013
#01212:00000013
#0121c:00120000
#01219:0000001200000000
#0121a:0012
#0121b:0000000000120000
#01318:12160000
#0131a:0014
#0131c:00000012
#01312:00121416
#01619:00130000
#01612:00001212
#0161c:00001212
#01617:13
#0161b:13
#01712:00001313
#01716:12
#01718:00120000
#0171b:00002323
#02112:000013130000000000000000
#0211b:0013
#02116:130000000013130000000000
#02118:00000023
#03215:13131313
#03213:0013000000130000
#03217:0000001300000013
#03315:13130000
#03313:0013000000000000
#03317:0000001300000000
#03312:00000014
#0331a:00000014
#04212:2414
#0421b:00130013
#04217:13
#04216:000000140000000000140014
#04312:130000000000000014140000
#04314:00130000
#04316:1413
#0431a:000000000014140000000000
#04318:000014140000000000130000
#04415:000000130013000013000000
#04418:000013000000130000130013
#04412:0013
#04416:13
#0451b:130000131300
#04515:13130013
#04512:001300130000
#04518:000000000013000000130013
#06316:00130000
#06314:0013
#06312:00000013
#0631b:000000130000000000000013
#06317:000013
#06319:000000000013000000000000
#06310:00410000
#06416:13
#06414:001300000000
#06412:000013130000
#06415:000000000013000013130000
#06418:0013
#06419:001300000000000000000000
#06417:00130000
#06515:000000130000000013000000
#06518:001300130000
#0651b:130000000000000013130000
#06512:130000000013000000000000
#06516:000000000000000000000013
#06712:13130013
#0671b:1313
#06718:000000001300000013000013
#06715:000000000013001300000000
#06812:13001313
#06815:000000130013000000000000
#0681b:000013000000130000130000
#06818:001313
#06619:000013230000000000000000
#06612:000000000013230000000000
#0661b:000000000000000013230000
#06616:23000023
#0075b:00000053
#00752:58255a2600000000
#00856:23
#01552:14000063
#01957:0053
#01955:00000013
#02352:53
#0235b:0063
#02455:5313
#02458:1363
#0345a:14
#03456:53
#03452:00230000
#03752:53
#03758:13000063
#0375b:0013
#0385b:13000053
#03852:13
#03956:00000053
#0485b:000053
#04852:00000053
#05158:00000052
#0515c:1212
#05857:00000013
#07055:53
#0705b:53
#00358:0052
#0035a:00000052
#0035b:0000000000220000
#00359:0000000000000022
#00452:00520000
#00454:0052
#00455:0000002200000000
#00453:0000000000220000
#00652:00005c265a255824
#01156:0062
#01153:0000000000220000
#01154:00000062
#01155:0000000000000022
#0125c:00620000
#01259:0000002200000000
#0125a:0062
#0125b:0000000000220000
#00552:00161412
#01358:00160000
#0135a:0014
#0135c:00000012
#01657:23
#02156:0063
#02158:00000013
#03255:53535353
#03253:0023000000230000
#03257:0000002300000023
#03355:53531300
#03353:0023000000000000
#03357:0000002300000000
#03555:00000053
#0455b:63
#04555:13000053
#04552:0013
#04257:63
#0425b:00230000
#04252:14
#04358:00000063
#02055:13
#02258:13
#03155:0013
#03158:00000013
#04958:13
#04955:13
#05052:1212
#05252:1212
#0525c:0012
#06656:00000013
#01452:00530000
#01457:00000053
#01456:0000002300000000
#0145b:0000000000000023
#0415b:0013
#003380:0012
#0033b0:0000000000520000
#0033a0:00000032
#003390:0000000000000052
#0043c0:22
#004320:00120000
#004350:0000005200000000
#004340:0032
#004330:0000000000520000
#004360:00000022
#006320:00001c563a553854
#007320:38553a562c000000
#0073b0:00000013
#008360:53
#0083b0:00230000
#011360:0012
#011330:0000000000520000
#011340:00000032
#011350:0000000000000052
#012320:22
#0123c0:00120000
#012390:0000005200000000
#0123a0:0032
#0123b0:0000000000520000
#012380:00000022
#014320:00132300
#014360:0000005300000000
#014370:00000013
#0143b0:0000000000000053
#015370:23
#015320:00000013
#016370:53
#016320:00230000
#019320:13230000
#019370:0013
#0193b0:00000023
#0213b0:13230000
#021360:0013
#021320:00000023
#023320:13
#023350:00230000
#0233b0:0013
#023380:00000023
#024350:13
#024320:00230000
#024380:0013
#0243b0:00000023
#026320:0013
#026350:00000023
#032350:13535353
#032330:0053000000530000
#032370:0000005300000053
#033350:53532300
#033330:0053000000000000
#033370:0000005300000000
#034360:1323
#034320:00530000
#035350:00000013
#036320:23
#037320:13
#037350:00230000
#037380:00000013
#0383b0:23
#0383b0:00000013
#039370:23
#039360:00000013
#040320:23
#042370:1323
#0423b0:00530000
#043380:00000013
#0443b0:23
#0453b0:13
#045380:00230000
#045350:00000013
#046320:23
#0483b0:000013
#049380:23
#048321:00000013
#049351:23
#049361:00122200
#051381:00000012
#0523c1:22
#053371:000000120022000000000000
#056321:000000000000000013230000
#057321:000000000000000000000013
#058321:23
#058391:000013230000000000000000
#058361:000000000013230000000000
#061351:00130000
#061321:0023
#0643b1:000000000000000013230000
#0653b1:000000000000000000000013
#0663b1:23
#066341:000013230000000000000000
#066371:000000000013230000000000
#070351:13
#070321:0023
#0703b0:13
#070380:0023
#072320:00001222
