This file was generated by Ched 2.7.0.0.
#TITLE ""
#ARTIST ""
#DESIGNER ""
#DIFFICULTY 0
#PLAYLEVEL
#SONGID ""
#WAVE ""
#WAVEOFFSET 0
#JACKET ""
#REQUEST "ticks_per_beat 480"
#00002: 4
#BPM01: 158
#00008: 01
#TIL00: ""
#HISPEED 00
#MEASUREHS 00
#0021a:14
#00214:0014
#0031a:14
#00312:0014
#00318:00000014
#00412:14
#0041a:00140014
#00414:0014
#0061a:00140014
#00614:0014
#00714:14
#00718:00140000
#00712:0014
#01012:14
#01018:0014
#01112:14
#0111a:0014
#01114:00000014
#0121a:14
#01212:00140014
#01218:0014
#0151a:0014
#0181a:1414
#01814:0014
#01810:41
#0191a:1414
#01914:0014
#02012:1414
#02018:0014
#02112:1414
#02118:0014
#0221a:14
#02214:0014
#02318:14
#02312:0014
#02514:00001414
#02510:41
#0261a:00140000
#02614:0014
#02618:00000014
#0261f:11
#02712:14
#02718:00140000
#02714:0014
#0271a:00000014
#03314:00000014
#03412:0014
#03418:24000014
#0341f:21
#03512:14
#03518:00140000
#03514:0014
#0351a:00000014
#03510:41
#03612:00140014
#03618:0014
#0381a:14
#03814:0014
#03914:00140000
#03918:0014
#04018:00140014
#04014:0014
#04114:14
#04112:0014
#0421a:0014
#04214:24000014
#0431a:14
#04314:00140000
#04318:0014
#04312:00000014
#0441a:00140014
#04414:0014
#04618:0014
#04614:00140000
#04610:41
#04718:00140000
#04714:0014
#04814:00140000
#04818:0014
#04912:0014
#0491a:0014
#0501a:14
#05014:0014
#05018:00000014
#05114:1414
#05118:00140000
#0531a:14
#05312:14
#0551a:00140000
#05514:0014
#05518:00000014
#05510:00410000
#0571a:00140014
#05714:0014
#05918:00140014
#05914:0014
#06012:1414
#0601a:00140014
#06112:00140014
#06118:0014
#06218:14
#06312:00140000
#06318:0014
#06314:00000014
#06310:00410000
#06512:00140014
#06518:0014
#06714:00140014
#06718:0014
#0681a:1414
#06812:00140014
#0691a:00140000
#06914:0014
#06918:00000014
#07012:14
#07118:140000143434
#07114:00140000
#0721a:14
#07218:003434000000
#00914:0024
#00918:00000024
#01718:0024
#01714:00000024
#0291a:00240024
#02914:0024
#03012:00240024
#03018:0024
#03119:00002424
#03113:00002424
#01412:00003434
#02418:00343434
#02812:00343400
#05612:00343400
#05812:00343400
#0641a:00343400
#0661a:00343400
#03458:14
#0385a:14
#04154:54
#04152:0054
#04254:14
#05852:00000014
#0665a:00000014
#07052:54
#07054:0014
#07158:0054
#0725a:24
#005340:00140000
#005330:0034
#005320:00000024
#007380:00000014
#0083a0:00343424
#013380:00140000
#013390:0034
#0133a0:00000024
#014320:00143434
#015340:24
#015340:00000014
#016320:00343424
#0243a0:14
#024380:00343434
#025380:24
#028320:14343400
#028340:00000024
#037380:14240000
#037340:00001424
#038380:00000014
#0393a0:24
#039340:00000014
#040320:24
#041340:14
#041320:0034
#042340:24
#045340:14240000
#045380:00001424
#046320:00000014
#047340:24
#0473a0:00000014
#048380:24
#048320:00000014
#049340:24
#051380:00000014
#0523a0:00240000
#056320:14343400
#056340:00000024
#058340:14
#058320:00343424
#062340:00140000
#062330:0034
#062320:00000024
#0643a0:14343400
#064380:00000024
#066380:14
#0663a0:00343424
#070320:14
#070340:0024
#071380:000000143434
#0723a0:34
#072380:000034003400340000240000
