This file was generated by Ched 2.7.0.0.
#TITLE ""
#ARTIST ""
#DESIGNER ""
#DIFFICULTY 0
#PLAYLEVEL
#SONGID ""
#WAVE ""
#WAVEOFFSET 0
#JACKET ""
#REQUEST "ticks_per_beat 480"
#00002: 4
#BPM01: 120
#BPM02: 96
#00008: 01
#01108: 01
#00908: 02
#TIL00: "11'0:1, 9'0:1"
#HISPEED 00
#MEASUREHS 00
#00018:16
#00112:16
#0021a:14
#00314:14
#00418:14
#00512:14
#0061a:14
#00610:41
#00714:14
#00818:14
#0111a:14
#01212:14
#01512:14
#0161a:14
#02012:14
#02118:14
#02218:14
#02312:14
#0241a:14
#02514:14
#02510:41
#02614:14
#03512:0016
#03518:26
#0351f:21
#03510:0041
#03712:16
#03718:0016
#03918:16
#03912:0016
#04018:16
#04012:0016
#0431a:14
#04414:14
#04518:14
#04510:41
#04612:14
#0471a:14
#04814:14
#04918:14
#05012:14
#0291f:11
#0191a:24
#01910:41
#01310:41
#009320:1434
#010320:00240000000000000000000000000000
#013380:1434
#014380:24
#017340:1434
#018340:24
#0273a0:14
#0283a0:24
#029340:14
#030340:24
#031380:14
#032380:24
#033320:14
#034320:24
#036380:1626
#038320:1626
#041380:1626
#042320:1626
#050350:0000000016003626
