This file was generated by Ched 2.7.0.0.
#TITLE ""
#ARTIST ""
#DESIGNER ""
#DIFFICULTY 0
#PLAYLEVEL
#SONGID ""
#WAVE ""
#WAVEOFFSET 0
#JACKET ""
#REQUEST "ticks_per_beat 480"
#00002: 4
#BPM01: 120
#BPM02: 96
#00008: 01
#01108: 01
#00908: 02
#TIL00: "11'0:1, 9'0:1"
#HISPEED 00
#MEASUREHS 00
#0011b:00000013
#00115:00000000000000000000000000130000
#00118:0000000000000013
#00112:00000000000000000000000000000013
#00116:24242400
#00218:1313001300000000
#00215:00130000000000130000000000000000
#00212:00000013001300000000130000000000
#0021b:00000000000000000000000000131300
#00315:1313001300000000
#00318:00130000000000130000000000000000
#0031b:00000013001300000000130000000000
#00312:0000000000000013
#0041b:13
#00415:00130000001300000000130000000000
#00418:00001300000013000000000000131300
#00412:00000013000000130000000000000000
#00515:0013001300000013
#00512:13
#00518:00130000001300000000130000000000
#0051b:00000013000000130000000000000000
#00617:00130013000000000000000000130000
#00612:2313000000000013
#00619:00000000001300130000000000000000
#00614:0000001300000000
#0061b:00000000000000000013001300000000
#00616:0000000023130000
#00610:41
#0081b:00130013000000000000000000000012
#00812:2313000000000000
#00819:00000000001300130000001200000000
#00814:0000231300002200
#00818:00000000000000000012000000000000
#00815:0000000000120000
#0081a:00000000000000000000000000120000
#00813:0000000000000012
#00816:0022
#00912:13130000
#00915:0013000000000000
#0091b:00001313
#00918:0000000000130000
#01114:13
#01119:13
#0111b:0000130000001313
#01112:00131300
#01117:0013
#01212:0013000000000000
#0121b:00130000
#01215:0000001313000000
#01216:00000013
#01214:0000000000000013
#01219:0000000000000013
#01312:1300130000001313
#01317:13
#0131b:00131300
#01316:0013
#01310:41
#01418:0000001313000013
#01415:00000000000000000000000000000013
#0141b:0013000000001300
#01412:00130000
#01518:13
#01512:0000130013000013
#0151b:0000130013000013
#01618:0013000000130000
#01612:0000130000000013
#01615:1300001300001300
#0161b:0013
#01712:0013001300130013
#01718:00000013000013001300000000000013
#0171b:0000000000000013
#01815:1313000000000014
#01818:000000130000000000000000000000000000000000000000000000000000000000001400000000000000000000000000
#0181b:00231300
#01813:0000000000140000
#01814:00000014
#01817:000000000000001400000000
#01819:000000000014
#01812:00231300
#01918:00001212000000000000121200000000
#01914:00120012
#0191a:00000000001200000000000000120000
#01916:0000001200000012
#0191c:00000000000000120000000000000000
#01912:23000000000000001212000000000000
#0191b:23
#01910:41
#02014:12120000000000001200000000000000
#0201a:00001212000000000000001200000000
#02016:0000121200120000
#02018:00000000001200120012000000000000
#0201c:0000000000000012
#02012:00000012
#0211c:12001212000000000000001200000000
#02116:00120000001200000000120000000000
#02118:00000000000000120000000000000000
#02114:0012
#0211a:00000000000000000012000000000000
#02112:00000000000000000000000000120012
#0221c:12
#02216:00120000000000000000000000000000
#0221a:00001212000000000000000000000000
#02212:00120000
#02218:00000000001200000012120000000000
#02214:00000000000012120000000000000000
#02313:00001212000000000012001200000000
#0231b:00000000121200000000120000000000
#02315:000000000000000000130013000000000000000000000000
#02318:000000000013130000000000
#02312:24
#0231a:24
#0241b:12120000000000000000000000000000
#02418:00000000120012120000000000000000
#02416:00000012001200000000000000000000
#02414:0000000012120000
#0241a:00000000000000000012001200000000
#0241c:00000000000000000000000000000012
#02412:00000012
#0251b:00120000000000000000000000120000
#02515:0012000000000012
#0251a:00000012000000000000001200000000
#02514:00000000121200000000000012000000
#02518:00000000000012120000000000000000
#02512:0012
#02519:00000000000000000012000000000000
#02513:0000000000120000
#02516:12
#0251c:00000000000000000000000000000022
#02510:41
#02612:00220012
#02618:00000022000000000000000012000000
#02616:2200000022000012
#0261c:00000000000000220022000000001200
#0261a:00220000002200000000000000000000
#02614:0022002200000000
#0271b:0013131300001300
#02718:1313
#02818:13001313
#02819:0013000000000000
#0281b:0000130000130013
#02912:0013000013000000
#02915:0000131300130000
#02914:00000013
#02913:0000000000000013
#0291f:11
#0291b:0000000000333300
#03012:1300001300000013
#03015:0013130013000000
#03014:0000000000130000
#03013:00000013
#0311b:0013
#03118:0000000000130000
#03119:00000013
#0311a:0000000000000013
#03112:23
#03116:0024242400000000
#0321b:13
#03219:0013000000000000
#0321a:0000130000140000
#03218:0000001300002600
#0321c:0012
#03316:0013000000000000
#03314:00130000
#03312:0000001300000000
#03418:00330000000000000000000000001300
#03415:00000000000000000000000000000013
#0341b:00000000000000000000000000130000
#03412:00330000000000000000000000000000
#03518:00001313000000000000000000000013
#03512:23000013000000002400000000130000
#0351b:23000000001313000000000013000000
#03515:0000001300000013
#03516:0000000000140000
#0351a:0024
#0351f:21
#03510:0041
#03612:23000000001313002400000013000000
#03618:0000001300000013
#03615:00001313000000000000000000000000
#0361b:23000013000000000000000013000000
#03616:0000000000140000
#0361a:0024
#03815:00130000000000000000130000130000
#0381b:23001313000000002300000000000000
#03818:00000000001300000013001300002300
#03812:00000000230013130000000023000000
#04315:00000013000013001300000000000000
#04312:13000000000000000000001300001300
#0431a:0012001200000000
#0431c:1200000022000012
#04318:00120012
#04412:00000013000013000000000000000000
#0441a:12122200
#0441c:0012000000000000
#04418:0000001200000013
#04415:13
#0441b:00000013
#04718:0012000022000000
#0471c:1200001200001200
#0471a:0000120000000012
#04712:00000013000013001300000000000000
#04715:13000000000000000000001300001300
#04818:1212000000000013
#0481a:00122200
#0481c:0000001200000000
#04815:00000013000013000000000000000000
#0481b:00000013
#04812:1313
#05018:00000013000013000014140000130000
#05014:0000000000000000120000000000000022000014000000000000000000000000
#05012:00000000000012000000001300000013
#0501b:13000013
#05015:0000000000000013
#05016:1212000000000000
#00712:00000000000000000013001300001300
#0071b:2313000000000013
#00716:00130013000000000000000000000000
#00714:00000000001300130000000000000000
#00719:0000001300000000
#00717:0000000023130000
#03715:1300000000130000
#03712:0013000000000000
#0371b:0000001300000000
#03718:0000000000000013
#03915:00001313000000000000000000000013
#0391b:23000013000000000000000000130000
#03912:23000000001313002400000013000000
#03918:0000001300000013
#03916:0000000000140000
#0391a:0024
#0401b:23000000001313000000000013000000
#04015:0000001300000013
#04018:00001313000000000000000000000000
#04012:23000013000000002400000013000000
#04016:0000000000140000
#0401a:0024
#04218:00130000000000000000130000000000
#04212:23001313000000002300000013000000
#04215:00000000001300000013001300001300
#0421b:00000000230013130000000013000000
#04118:1300000000130000
#0411b:0013000000000000
#04112:0000001300000000
#04115:0000000000000013
#04518:00000013000013001300000000000000
#0451b:13000000000000000000001300001300
#04514:0012001200000000
#04512:1200000022000012
#04516:00120012
#04510:41
#0461b:00000013000013000000000000000000
#04614:12122200
#04612:0012000000001300
#04616:0000001200000000
#04618:13
#04615:0000000000000013
#04916:0012000022000000
#04912:1200001200001200
#04914:0000120000000012
#0491b:00000013000013001300000000000000
#04918:13000000000000000000001300001300
#00016:2424
#00352:0000000000000013
#0095b:00005353
#00955:0053000000000000
#00952:63630000
#00958:0000000000630000
#02254:00000000000000520000000000001200
#0225a:0000000000000012
#02758:0013
#0275b:00000013
#03052:0000001300000000
#03258:00000016
#03352:0000000000130000
#03355:0000000000000013
#03552:0014
#0355a:0014
#03858:0000000000000013
#0435c:0012
#0445a:0012
#04758:0012
#0485a:0012
#04852:0053
#00555:0000000000000013
#01152:00135300
#0115b:0000130000000053
#0135b:00136300
#01352:0000130000000063
#01552:00135300
#0155b:00135300
#01758:0053
#02052:00000052
#0215c:00000052000000000000000000000000
#02156:00000000005200000000000000000000
#02452:00000052
#02656:0052
#0265c:00000000000000000052000000000000
#0365a:0014
#03652:0014
#0395a:0014
#03952:0014
#04052:0014
#0405a:0014
#04552:0012
#04654:0012
#04956:0012
#05054:0012
#03752:0013000000000000
#0375b:0000001300000000
#03755:0000000000130000
#03758:0000000000000013
#0415b:0013000000000000
#04152:0000001300000000
#04158:0000000000130000
#04155:0000000000000013
#001320:0000000000130000
#001330:000033
#001340:000000000000000000000000000000000033000000000000
#001350:00000023
#0023b0:0013
#002380:0000000000230000
#002320:00000000000000000000001300000000
#002350:00000000000000000000000000230000
#003320:0013
#003350:0000000000230000
#0033b0:00000000000000000000001300000000
#003380:0000000000000023
#004380:0013
#0043b0:0000000000230000
#004320:00000000000000000000001300000000
#004350:00000000000000000000000000230000
#005350:0013
#005320:0000000000230000
#0053b0:00000000000000000000001300000000
#005380:0000000000000023
#009320:13330000
#009350:0033000033000000
#010350:33
#010360:00000000000000000022000000000000
#0093b1:00001333
#009381:0000000000330000
#010381:33000000000000000022000000000000
#011321:0013
#011361:0000000000000023
#0113b0:0000000000000013
#012370:0023000000000000
#0123b0:00001323
#012380:0000000000330000
#0133b0:0013
#013370:0000000000000023
#013321:0000000000000013
#014361:0023000000000000
#014321:0013
#014361:00000023
#015321:0013
#015351:00000023
#0153b0:0013
#015380:00000023
#0173b0:13
#017380:0023000000000000
#017380:0013
#0173b0:00000023
#020320:00000012
#020360:0000000000000022
#0213c0:00000012000000000000000000000000
#021380:00000000002200000000000000000000
#021361:00000000001200000000000000000000
#021321:00000000000000220000000000000000
#021381:00000000000000000000000000120022
#022341:00000000000000120000000000000000
#022361:0000000000220000
#022341:0000000000001222
#0223a0:0000000000001222
#0233b0:00000012
#023390:0000000000000022
#023351:0000000000000012
#024331:22
#024321:00000012
#024361:0000000000000022
#026361:0012
#026321:00000000000000000000002200000000
#0263c0:00000000000000000012000000000000
#026380:00000000000000000000002200000000
#027320:1300003300003300
#027350:00003333330000003300000000000000
#028350:33330000
#028320:0033003333000000
#029350:23
#0293b1:1300003300333333
#029381:00003333330000003300000000000000
#030381:33000000000033000000003300003300
#0303b1:00003333330000003300000000000000
#030391:00000000000000000033000033000000
#0303a1:0000000000330000
#030371:00000000000000000000000000330000
#030361:00000000000000000000000000000033
#031371:23
#031351:0013
#031321:0000000000000033
#032351:33333300
#032321:0033003300000033
#033351:23
#033380:13333300
#0333b0:0033003300000023
#033351:0013
#033321:0000000000230000
#033321:00000013
#033351:0000000000000023
#034351:13000000000033000033000023000000
#034321:00333300000000330000330000000000
#0343b0:13000000000033000033000023000000
#034380:00333300000000330000330000000000
#0373b0:13230000
#037380:0033000000000000
#037321:00132300
#037351:0000003300000000
#037380:00001323
#0373b0:0000000000330000
#037351:00000013
#037321:0000000000000033
#038351:23
#041321:13230000
#041351:0033000000000000
#0413b0:00132300
#041380:0000003300000000
#041351:00001323
#041321:0000000000330000
#041380:00000013
#0413b0:0000000000000033
#042380:23
#044320:0013
#044350:00000023
#0463b0:0013
#046380:00000023
#048320:0013
#048360:00000023
