This file was generated by Ched 2.7.0.0.
#TITLE ""
#ARTIST ""
#DESIGNER ""
#DIFFICULTY 0
#PLAYLEVEL
#SONGID ""
#WAVE ""
#WAVEOFFSET 0
#JACKET ""
#REQUEST "ticks_per_beat 480"
#00002: 4
#BPM01: 120
#BPM02: 96
#00008: 01
#01108: 01
#00908: 02
#TIL00: "11'0:1, 9'0:1"
#HISPEED 00
#MEASUREHS 00
#00218:00001300000000130000000000130000
#00215:00000013000013000000001300000000
#0021b:00000000001300000000130000000000
#00212:0000000013000013
#00318:1300001300000000
#00315:00001300000000130000000000000000
#0031b:00000013000000000000000000000000
#00312:00000000001300000000000000000000
#00412:1313
#00418:00001300000000130000130000130000
#00415:00000013000013000000001300001300
#0041b:00000000001300000000000000000000
#00618:00130013000013000000000000001300
#00612:2313000000000000
#00615:00000000001300130000000000130000
#0061b:00000000000000000033330000000000
#00610:41
#0081b:00130013000000000000000000000000
#00812:2313000000000000
#0081a:00000000001300130000000000000000
#00813:0000231300000000
#00819:00000000000000000013001300000000
#00814:0000000023130000
#00818:00000000000000000000000000130013
#00815:0000000000002313
#01112:13131300
#0111b:1300130000000013
#01215:0000130013000013
#01218:0000001300000000
#0121b:00000013
#01318:13
#01312:0000130000000013
#0131b:00131300
#01310:41
#01415:0000001300000013
#01418:00130000
#01518:13
#01512:0000130013000013
#0151b:0000130013000013
#01618:0013001300130000
#01612:00130000
#01615:00001313
#0161b:0000000000000013
#01718:0013001300000000
#01715:00000013000000001300000000000013
#0171b:0000000000000013
#01712:13
#01818:13000013000000000000000000000000
#01812:0013000000000000
#01815:0013
#01915:00000013000000001300130000330000
#01918:00001300000000000013001300000000
#01912:23
#0191b:23000000003333000000000000000000
#01910:41
#02015:13001300000000000013001300000000
#02018:00130013000000001300130000330000
#02012:00000000003333000000000000000000
#0211b:13001300000000000000000000130000
#02115:00130013000000000013001300000000
#02118:0000000013130000
#02112:00000000001300000000000000000000
#0231b:000000000000130000000000000000000000000033003300000000330000330000330000000000000000000000000000
#02315:00000013000000000000000000001300
#02318:00130000
#02312:25000000001300000000000000000000
#02319:25
#02418:13000000001300000013001300000000
#02415:00130000130000001300130000000000
#0241b:00000013000000130000000000000000
#02412:0000001300001300
#02618:00000013
#02615:0000000000000013
#02614:00230000002300000000000000000000
#02617:2323
#02616:00000023000000000000000000000000
#02619:0023002300000000
#0261b:00230000
#02612:00000000000000230023000000000000
#02715:0013130000000000
#0271b:1300001300000000
#02712:0013
#02718:00000013000000000000000013000000
#02812:13
#02815:0013000013001300
#02818:0000130000130013
#02912:0013000000000000
#0291b:0000130000130000
#02918:0000001300000013
#02915:00001313
#0291f:11
#0301b:0000001300000013
#03012:1313
#03018:0013000000130000
#03015:00130013
#03112:2313
#03118:0024002400130000
#03115:00000013
#0311b:0000000000000013
#03114:00240000
#03212:1313
#03215:0013000000002600
#0321b:0000130000130000
#03218:0000001300000000
#0331b:0013000000000000
#03318:00130000
#03315:0000001300000000
#03518:00001300000000002300000000130013
#0351b:00000000001300000000000000000000
#03515:00000013000013000000000013001300
#03512:23
#0351f:21
#03510:0041
#03618:00001300001300000000000000001300
#03615:00000013000000000000000000000000
#03612:2300001300001300
#0361b:0023
#03818:00130013000000000000000000000000
#03812:23001300000000000033000000330000
#0381b:00000000001300130000000000000000
#03815:00000000230013000000003300002300
#04318:00000013000013000000001300001300
#04312:0013000000000000
#0431b:13
#04315:00132313
#0441b:13000013
#04415:0013001300000000
#04418:0000130000000013
#04412:1323
#0471b:1323
#04715:13000000130000000000001300001300
#04712:0013000000000000
#04718:00000013000013000000000013000000
#0481b:1323
#04818:00000013000013000000000013000000
#04812:13
#04815:0013130000000013
#0501b:13000013
#05015:00000013000013000000000000130000
#05018:0013130000000013
#05012:13000000000000002300000000000013
#03715:1313
#0371b:0013000000130000
#03718:0000001300000013
#03712:00130013
#0051b:1300001300000000
#00515:00001300000000130000000000000000
#00518:00000013000000000000000000000000
#00512:00000000001300000000000000000000
#00715:00130013000013000000000000001300
#0071b:2313000000000000
#00718:00000000001300130000000000130000
#00712:00000000000000000033330000000000
#02212:1313000000000000
#02218:00130013000000000000130000000000
#02215:00000000130013000013000000000000
#0221b:00000000001300130000000000000000
#0251b:13001300000000000033330033330000
#02515:00130013000000000000000000000000
#02518:0000131300000000
#02512:00000000001300130000000000000023
#02510:41
#03415:0000000000000013
#03418:00330000000000000000000000000013
#03915:00001300000000002300000000130013
#03912:00000000001300000000000000000000
#03918:00000013000013000000000013001300
#0391b:23
#04015:00001300001300000000000000001300
#04018:00000013000000000000000000000000
#0401b:2300001300001300
#04012:0023
#04215:00130013000000000000000000001300
#0421b:23001300000000000033000000000000
#04212:00000000001300130000000000000000
#04218:00000000230013000000003300000000
#04118:1313
#04112:0013000000130000
#04115:0000001300000013
#0411b:00130013
#04615:00130013
#04618:0013001300000013
#04612:13
#0461b:1323
#04515:00000013000013000000001300001300
#0451b:0013000000000000
#04512:13
#04518:00132313
#04510:41
#04912:1323
#04918:13000000130000000000001300001300
#0491b:0013000000000000
#04915:00000013000013000000000013000000
#00018:24
#00014:0024
#00118:2424
#00114:00240000
#00112:00000000000000000000000000333333
#02252:0000000000000013
#0225b:0000000000000013
#02752:0013
#02758:00000013
#03255:00000016
#0335b:0000000000130000
#03352:0000000000000013
#03558:0013
#04355:0013
#04452:0013
#0475b:0013
#0485b:0013
#01152:00135300
#0115b:0000130000000053
#0135b:00136300
#01352:0000130000000063
#01552:00135300
#0155b:00135300
#01755:0063
#02155:00000053000000000000000000000000
#02152:00000000005300000000000000000000
#0215b:00000000000000000000000000530000
#02452:00000053
#02652:00000000000000000063000000000000
#0365b:0013
#0375b:0013000000130000
#03758:0000001300000013
#0035b:0000000000000013
#00558:0000000000000013
#01858:00000053000000000000000000000000
#01855:0053
#04152:0013000000130000
#04155:0000001300000013
#03955:0013
#04052:0013
#04558:0013
#0465b:0013
#04952:0013
#05052:0013
#03855:0000000000000013
#001320:00000000000000000000000013333333
#002350:23
#0033b0:0000000013000023
#003380:00000000000000000000333300000000
#005380:0000000013000023
#0053b0:00000000000000000000333300000000
#0063b0:00000000000000001333330000000000
#006380:00000000000000000000002300000000
#007320:00000000000000001333330000000000
#007350:00000000000000000000002300000000
#009320:13330000
#009350:0033000033000000
#010350:33000000000000000023000000000000
#0093b1:00001333
#009381:0000000000330000
#010381:33000000000000000023000000000000
#011321:0013
#011351:00000023
#0113b1:0000000000000013
#012381:0023000000000000
#0133b1:0013
#013381:00000023
#013321:0000000000000013
#014351:0023000000000000
#0143b1:0013
#014381:00000023
#015321:0013
#015351:00000023
#0153b0:0013
#015380:00000023
#017350:0013
#017320:00000023
#018380:00000013000000000000000000000000
#0183b0:0000002300000000
#018350:0013
#018320:00000023
#0193b0:00000000133333000000000000000000
#019380:00000000000000230000000000000000
#019350:00000000000000000000000013330000
#019320:0000000000000023
#020320:00000000133333000000000000000000
#020350:00000000000000230000000000000000
#020380:00000000000000000000000013330000
#0203b0:0000000000000023
#021350:00000013000000230000000000000000
#021320:00000000003300000000000000000000
#0213b0:00000000000000000000000000130000
#021380:00000000000000000000000000000023
#022320:0000000000001323
#0223b1:0000000000001323
#0233b1:000000000000000000000000000000000000130033003300000000330000330000330000230000000000000000000000
#023381:0033
#024321:00000013
#024351:0000000000000023
#0253b1:00000000000000001333330033332300
#025381:00000000000000000000003300000000
#026321:00000000000000000013000000000000
#026351:00000000000000000000002300000000
#033381:0013
#0333b1:0000000000230000
#033351:00000013
#033321:0000000000000023
#0343b1:13000000000033330000000023000000
#034381:00333300000000000033330000000000
#038321:00000000000000001333000033330000
#038351:00000000000000000000333300002300
#0423b1:00000000000000001333000023000000
#042381:00000000000000000000333300000000
