This file was generated by Ched 2.7.0.0.
#TITLE ""
#ARTIST ""
#DESIGNER ""
#DIFFICULTY 0
#PLAYLEVEL
#SONGID ""
#WAVE ""
#WAVEOFFSET 0
#JACKET ""
#REQUEST "ticks_per_beat 480"
#00002: 4
#BPM01: 120
#BPM02: 96
#00008: 01
#01108: 01
#00908: 02
#TIL00: "11'0:1, 9'0:1"
#HISPEED 00
#MEASUREHS 00
#0011b:00000013
#00118:000000000000000000000000000000000000000000000000000000000000000013000000000000130000000000000000
#00115:000000000000000000000000000000130013000000130000
#00112:2c0000002c0000002c00000000000013
#0021b:13000013000000000000130000130000
#00215:00130000000000000000000000000000
#00218:00001300000013130013000013000000
#00212:00000013001300000000000000001300
#0031b:13000000000000000013000000131300
#00315:00130000000000000000001300000000
#00318:00001313000013130000130000000000
#00312:00000013001300001300000000001300
#0091b:1300130000130000
#00918:0013000013000000
#00912:13001313
#00915:0000000000130000
#01112:13230000
#0111b:13000000230000001300131300001300
#01116:00000014000014000000000014001400
#0121b:0013001300000000
#01218:00000000000000130000000000000000
#01212:13000000130000000000001313000000
#01216:00140014000000000000000000001400
#01818:120000120000000000000000000012000000000000140000
#01816:00120000000014000000000014000000
#0181c:000000120012
#01814:0000000000140000
#0181a:000000000000000000000000000000000012000000000000
#01812:00231400
#0181b:00230000
#0271b:00001313130013000000000013000000
#02718:0013
#02717:13
#0281b:1300130000130013
#02818:0013000013001300
#02912:00001313130000000000000013000000
#02915:0000001313000000
#0291f:11
#03012:0000001300130013
#03015:00001313130000001300000013000000
#0311b:00000000000000001313000013000000
#03118:0000000000130013
#03112:22
#03114:00220000000000000000000000000000
#03116:0024242400000000
#0321b:1300131300000000
#03218:0013000012142600
#03316:0013000000000000
#03314:00130000
#03312:0000001313001300
#0331b:0000000000000000000000000000000013000000000000000013000000000000
#03315:0000000000130013
#00612:13130000130000001300000013000000
#00616:00001414000000000000141400000000
#00615:00000000001300130000000000130000
#00618:0000001300000013
#0061a:24000000240000002414000024000000
#00610:41
#0081b:23130000000000002313000000000000
#00815:00001313000000000000131300000000
#00818:00000000231300000000000023130000
#00812:00000000000013130000000000001313
#0131b:1300130013001313
#01314:0013
#01312:1300130000120000
#01316:0014001400140014
#01310:41
#01412:1313130013001300
#0141b:13130000
#01416:00001400000014000000140000002424
#01918:00001200001200120012001200120000
#0191b:0000001200120012
#01915:00121212
#01912:24000022000022000000002200002200
#0191a:24
#01910:41
#02019:12120000120022000000120000120000
#02013:00001212000000000000000000000000
#02015:00000000001200120012000012000000
#02012:00000000000000001200001200001200
#0201c:00000022000000000022002200002200
#02115:12001200001200000000000000001212
#0211a:00120000000000000000000000000000
#0211c:00000012120000000000002200002200
#02119:00000000000012121200120000120000
#02114:00000000000000000012000000000000
#02112:00000022000022000000001212000000
#0221c:12
#02217:00120000000000000000000000000000
#0221b:0012000000000000
#02216:00000012000000000000000024242400
#0221a:00120000
#02215:00000000001200000000000000000000
#02219:0000001200000000
#02214:00000000000000120000000000000000
#02213:00000000000000000012000000000000
#02212:00000000000000000000001200000000
#02314:22120000000000000000002200000000
#0231a:00001222000000000000000012000000
#02316:0000000000000000120012000000120000000000120000000000000022000012
#02312:0012
#02318:0000000000000000000000000000001200001200000000000000120000001200
#0231c:0000002200000000
#0241c:12000000000000000000121200000000
#02414:00120000000022120000000000000000
#0241a:00001222001200000000000000000000
#02418:0000000000000000000000000000001200000000000000000000000022000000
#02416:00000000000000001222002200000012
#02412:00120000
#02616:00000000002200000022000012000000
#02612:2200000000000012
#0261c:00000000000000220000000012000000
#02615:00220000000000000000000000000000
#02618:0022000000220000
#0261b:00000022000000000000000000000000
#02613:00220000
#02619:0000002200000000
#02614:0022
#0261a:00000000000000000000002200000000
#03418:0000000000000013
#03415:00000000000000000000000000130013
#04312:13000023000023000000002300002300
#04318:00130000000000000000000000000000
#04315:0013000000000000
#0431b:00000013000000000000000000001300
#04316:0000141414000000
#04317:00000013
#04417:1313
#04419:0013001300000000
#0441b:00130013
#04418:0000000000000013
#04412:13000023000023000023002300002300
#05014:00000000000000000000000000120000
#05018:00000000000000000013130000001200
#05016:14000000140000000000000000000012
#0501b:13000023000013001300000000000000
#05015:0000000000000000000000000000000000000013000013000000000000000000
#0501a:00000012
#05012:0013002313000000
#00412:13000013000000000000130000130000
#00418:00130000000000000000000000000000
#00415:00001300000013130013000013000000
#0041b:00000013001300000000000000001300
#00512:13000000000000000013000000130000
#00518:00130000000000000000001300000013
#00515:00001313000013130000130000001300
#0051b:00000013001300001300000013000000
#0071b:13130000130000001300000013000000
#00716:00001414000000000000141400000000
#00718:00000000001300130000000000130000
#00715:0000001300000013
#00712:24000000240000002414000024000000
#0151b:13230000
#01512:13000000230000001300131300001300
#01516:00000014000014000000000014001400
#01612:0013001300000000
#01615:00000000000000130000000000000000
#0161b:13000000130000000000001313000000
#01616:00140014000000000000000000001400
#01712:1300130013001313
#01719:0013
#0171c:0000000000120000
#01716:0014001400140014
#0171b:13130000
#0251a:12120000000000000000002200000000
#02514:00001222000000000000000012000000
#02518:0000000000000000120012000000120000000000120000000000000022000012
#0251c:0012
#02516:0000000000000000000000000000001200001200000000000000120000001200
#02512:0000002200000000
#02510:41
#03518:0000000013000000000000001300000000000000130000130000000013000000
#0351b:23000013000000000013000000130000
#03515:00000013001300000000001300000013
#03512:2300001326001300
#0351f:21
#03510:0041
#03615:00001300000013000000001300001300
#03612:23000013000000000013000013000000
#03618:00000013001300002600130000130000
#0361b:2300000000000000000000001300000000000000000000130000000000001300
#03818:00130000000000130000130000130000
#03812:23001300000000000013000013000000
#03815:0000000000001300000013000000001300000000000013000000000023000000
#0381b:0000231323002300
#03718:13000000130000130000130000130000
#0371b:00001300000000000013000000000013
#03712:1300001300001300
#03715:00000013000000001300001300001300
#03915:0000000013000000000000001300000000000000130000130000000013000000
#03912:23000013000000000013000000130000
#03918:00000013001300002600001300000013
#0391b:2300001300001300
#04018:00001300000013000000001300001300
#0401b:23000013000000000013000013000000
#04015:00000013001300000000130000130000
#04012:2300000000000000000000001300000026000000000000130000000000001300
#04115:13000000130000130000130000130000
#04112:00001300000000000013000000000013
#0411b:1300001300001300
#04118:00000013000000001300001300001300
#04215:00130000000000130000130000000000
#0421b:23001300000000000013000013000000
#04218:0000000000001300000013000000001300000000000013000000000013000000
#04212:0000231323002300
#04515:00130000000000000000000000000000
#04518:0013000000000000
#04512:00000013000000000000000000001300
#04516:0000141414001300
#0451b:13000023000023000000002300002300
#04510:41
#04616:1313
#04614:0013001300000000
#04612:00130013
#04615:0000000000000013
#0461b:13000023000023000023002300002300
#04712:13000023000000001300002300001300
#04718:00130000000000000000000000000000
#04715:0013000000000000
#0471b:00000013000023000000000000002300
#04716:0000141414001400
#04816:14141300
#0481b:00001300000023000023002300000000
#04812:13000023000013000000000000002300
#04818:0000000000000013
#04815:00000013
#0491b:13000023000000001300002300001300
#04915:00130000000000000000000000000000
#04918:0013000000000000
#04912:00000013000023000000000000002300
#04916:0000141414001400
#00012:2c2c
#00952:00006363
#00958:0063000063000000
#0095b:5300530000530000
#00955:0000000000530000
#03052:0000001300000000
#00252:00000013000000000000000000000000
#00352:00000013000000000000000000001300
#01354:0053
#01352:0000000000220000
#01356:0014001400140014
#01852:00130000
#0185b:00130000
#0275b:0000000000135300
#02758:0000000063000013
#0285b:00130000
#02955:0000000053000013
#02952:0000000000136300
#0045b:00000013000000000000000000000000
#0055b:00000013000000000000000000000000
#01456:0014001400140000
#01759:0063
#0175c:0000000000220000
#01756:0014001400140014
#02658:0000000000000012
#0265c:00000052
#03258:00000016
#0335b:0000000000000000000000000000000053000000000000000053000000000000
#03355:0000000000130013
#0375b:0013000000000000
#03752:0000001300000000
#03758:0000000000130000
#03755:0000000000000013
#03552:0016
#03855:0000000000000013
#03658:0016
#04152:0013000000000000
#0415b:0000001300000000
#04155:0000000000130000
#04158:0000000000000013
#03958:0016
#04052:0016
#04356:0054
#04352:00000013000013000000001300001300
#04457:0053
#04452:00000013000013000013001300001300
#04656:0063
#0465b:00000013000013000013001300001300
#04556:0064
#0455b:00000013000013000000001300001300
#04856:0053
#04852:00000013000000000000000000001300
#0485b:00000000000013000013001300000000
#04756:0054
#04752:00000013000000000000001300000000
#0475b:0000001300000013
#04956:0064
#0495b:00000013000000000000001300000000
#04952:0000001300000013
#0505b:00000013000000000000000000000000
#05052:0000001300000000
#02256:0000000000000014
#002320:0013
#002350:0000000000230000
#002320:00000000000000000000001300000000
#002350:00000000000000000000000000230000
#0043b0:0013
#004380:0000000000230000
#0043b0:00000000000000000000001300000000
#004380:00000000000000000000000000230000
#0093b0:1300330000330000
#009380:0033000033003300
#010380:33
#010360:00000000000000000022000000000000
#009321:00001333
#009351:0000000000330000
#010351:33
#010381:00000000000000000022000000000000
#011321:0013
#011361:0000000000230000
#012351:0013
#012321:0000000000230000
#012380:0000000000130000
#0123b0:00000023
#013340:00001323
#013320:0000000000320000
#0143b0:00001323
#0153b0:0013
#015370:0000000000230000
#016380:0013
#0163b0:0000000000230000
#016351:0000000000130000
#016321:00000023
#017391:00001323
#0173c1:0000000000320000
#022381:0012
#0223a1:00000000000000000022000000000000
#0223c1:0000000000120000
#0223a1:00000000000000000000002200000000
#024361:0000000000001222
#0263c1:00000012
#026381:0000000000000022
#027321:1300003300000000
#027361:00000033000000000000000000000000
#027351:00000000000000003353535333535353
#027331:0000000000000000000000000000000000530053005300530053005300530053
#028351:33
#028321:00003300000000003353335333533353
#028361:00330000
#028341:0000000000000000000000000000000000530053005300530053005300530053
#029321:23
#027380:0013
#0273b0:0000000000230000
#0273b0:00000013
#027380:0000000000000023
#0293b0:1300003300000000
#029380:00000033000000003353535353533300
#0293a0:0000000000000000000000000000000000530053005300530053005300000000
#0303b0:00000033000000003300000033003300
#030380:0000000000000000000000003300000000000033003300000000000000000000
#0303a0:0000000000000000000000000000000000330000000000330033003300330033
#030390:00000000000000000033003300330033
#030370:0000000000330000
#0313b0:23
#029351:0013
#029321:0000000000230000
#029321:00000013
#029351:0000000000000023
#031360:0013
#031320:0000000000000033
#032360:3300003300000000
#032320:00000033000000003353535333535353
#032340:0000000000000000000000000000000000530053005300530053005300530053
#033320:23
#033371:1300003300000000
#0333b1:0000000000003300000000000000000033000000000000000053000000000000
#033381:000000000000000000000000000000000000000000000000000000000000000000000000000000000000000000000000000000000000000000000000000000000000000000000000000000000000000000000000000000000000000000000000000000000000000000000000000000000000000000000000000000000000000000000000000000000000000000000000000000000000000000000000000000000000000000000000000000000000000000000000000000000000000000000000000000000000000000000000000000000000000000000000000000000000000000000000000000000000000000000000000000000000000000000000000000000000000000000000000000000000000000000000000000000000000000000000000000000000000000000000000000000000000000000000000000000000000000000000000000000000000000000000000000000000000000000000000000000000000000000000000000000000000000000000000000000000000000000000000000000000000000000000000000000000000000000000000000000000000000000000000000000000000000000000000000000000000000000000000000000000000000000000000000000000000000000000000000000000000000000000000000000000000000000000000000000000000000000000000000000000000000000000000000000000000000000000000000000000000000000000000000000000000000000000000000000000000000000000000000000000000000000000000000000000000000000000000000000000000000000000000000000000000000000000000000000000000000000000000000000000000000000000000000000000000000000000000000000000000000000000000000000000000000000000000000000000000000000000000000000000535600000000000000000000000000000000000000000000000000000000360000000000000000000000000000000000000000000000000000000056000000000000000000000000000000000000000000000000000000000000000000000000000000000000000000000000000000000000000000000000000000000000000000000000000000000000000000000000000000000000000000000000000000000000000000000000000000000000000000000000000000000000000000000000000000000000000000000000000000000000000000000000000000000000000000000000000000000000000000000000000000000000000000000000000000000000000000000000000000000000
#034381:23
#034320:13000000000033330000330023000000
#034340:00330000000000000000000000000000
#034360:00003300000000000033000000000000
#0343b1:00001300000000330033000023000000
#034371:0000003300330000
#043361:0014
#0433a1:00000000000000000000002400000000
#044371:0013
#0443b1:0000000000230000
#045361:0014
#045321:00000000000000000000002400000000
#046361:0013
#046321:0000000000230000
#047361:0014
#0473a1:00000000000000000000002400000000
#048361:0013
#048321:0000000000230000
#049361:0014
#049321:00000000000000000000002400000000
