This file was generated by Ched 2.7.0.0.
#TITLE ""
#ARTIST ""
#DESIGNER ""
#DIFFICULTY 0
#PLAYLEVEL
#SONGID ""
#WAVE ""
#WAVEOFFSET 0
#JACKET ""
#REQUEST "ticks_per_beat 480"
#00002: 4
#BPM01: 120
#BPM02: 96
#00008: 01
#01108: 01
#00908: 02
#TIL00: "11'0:1, 9'0:1"
#HISPEED 00
#MEASUREHS 00
#00018:1616
#00118:1616
#00112:00160000
#0031a:0014
#00512:0014
#0061a:14001414
#00614:00140000
#00610:41
#00712:14001414
#00718:00140000
#0081a:14001414
#00814:00140000
#0111a:14
#01114:00240000
#01312:14
#01318:00240000
#01310:41
#01212:14
#01218:00140000
#01214:0014
#0121a:00000014
#0211a:14
#02114:00140000
#02118:0014
#02112:00000014
#01418:14
#01414:00140000
#01419:0014
#01413:0014
#01512:14
#01518:00240000
#01612:00000014
#0161a:14
#01614:00140000
#01618:0014
#0191a:24001414
#01914:00140000
#01910:41
#02012:14001414
#02018:00140000
#0221a:14
#02214:00140000
#02218:0014
#02212:00000014
#0231a:24140014
#02314:0014
#02412:14140014
#02418:0014
#0251a:14140014
#02514:0014
#02510:41
#02612:14
#02613:00340000
#02614:0034
#02712:0014
#0271a:24
#02914:14
#02918:0014
#0291f:11
#0311a:0014
#03112:24
#03012:14
#0301a:00140000
#03014:0014
#03018:00000014
#03318:14
#03314:0014
#03512:00160000
#03518:2616
#0351f:21
#03510:0041
#03612:1616
#03618:00160000
#0371a:14
#03712:00140000
#03718:0014
#03714:00000014
#0381a:14
#03812:00140000
#03818:00001414
#03814:0000000000140000
#03918:00160000
#03912:1616
#04018:1616
#04012:00160000
#04112:14
#0411a:00140000
#04114:0014
#04118:00000014
#04212:14
#0421a:00140000
#04214:00001414
#04218:0000000000140000
#0431a:14
#04318:00140000
#04414:14
#04412:00140000
#04518:14
#0451a:00140000
#04510:41
#04612:14
#04614:00140000
#0471a:14
#04714:00140000
#04718:0014
#04712:00000014
#04818:14
#04814:00140000
#0481a:0024
#04912:14
#04918:00140000
#04914:0014
#0491a:00000014
#05014:14
#05018:00140000
#05012:0024
#03414:28
#02654:00000014
#02652:54
#03558:0016
#03652:0016
#03952:0016
#04058:0016
#04452:00240000
#04454:54
#04358:00240000
#0435a:54
#04558:64
#0455a:00240000
#04652:64
#04654:00240000
#05052:0054
#03454:18
#002380:14
#0023a0:0034
#0033a0:24
#004340:14
#004320:0034
#005320:24
#009320:14
#009340:0034
#010320:00340000000000000024000000000000
#011380:00001424
#013340:00001424
#015340:00001424
#0173a0:14
#017390:00340000
#017380:0034
#017370:00000024
#018320:14
#018330:00340000
#018340:0034
#018350:00000024
#026320:14
#026330:00340000
#026340:00003424
#028380:1434
#0283a0:00340024
#032340:1434
#032320:00340024
#0433a0:1424
#043380:00340000
#044340:1424
#044320:00340000
#045380:1424
#0453a0:00340000
#046320:1424
#046340:00340000
#050320:0014
#050340:00000000000000000000000034343424
