This file was generated by Ched 2.7.0.0.
#TITLE ""
#ARTIST ""
#DESIGNER ""
#DIFFICULTY 0
#PLAYLEVEL
#SONGID ""
#WAVE ""
#WAVEOFFSET 0
#JACKET ""
#REQUEST "ticks_per_beat 480"
#00002: 4
#BPM01: 179
#00008: 01
#TIL00: ""
#HISPEED 00
#MEASUREHS 00
#00019:14
#00119:14
#00213:14
#00313:14
#0041a:14
#00512:14
#0061a:14
#00712:14
#01218:14
#01314:14
#0141a:14
#01512:14
#00818:14
#00810:41
#00914:14
#0101a:14
#01112:14
#02018:14
#02010:41
#02112:14
#0221a:14
#02314:14
#0281a:14
#02810:41
#02914:14
#03018:14
#03112:14
#04018:2616
#0401f:21
#04212:1616
#04210:41
#04418:16
#04412:0016
#04518:16
#04512:0016
#04618:16
#04612:0016
#04712:16
#04812:0016
#04818:26
#05012:16
#05018:0016
#05218:1616
#05210:41
#05312:1616
#05418:16
#05412:0016
#05518:16
#0641a:14
#06410:41
#06612:14
#0681a:14
#0321f:11
#06012:26
#06514:24
#06518:0024
#06718:24
#06714:0024
#06914:24
#06918:0024
#0163a0:14
#0173a0:24
#018340:14
#019340:24
#024380:14
#025380:24
#026320:14
#027320:24
#0323a0:14
#0333a0:24
#034340:14
#035340:24
#036380:14
#037380:24
#038320:14
#039320:24
#041380:1626
#043320:1626
#049380:1626
#051320:1626
#056320:16
#057320:26
#058380:16
#059380:26
#060320:16
#063320:26
#070320:1434
#071320:3424
#0723a0:00000014
#0763a0:24
