This file was generated by Ched 2.7.0.0.
#TITLE ""
#ARTIST ""
#DESIGNER ""
#DIFFICULTY 0
#PLAYLEVEL
#SONGID ""
#WAVE ""
#WAVEOFFSET 0
#JACKET ""
#REQUEST "ticks_per_beat 480"
#00002: 4
#BPM01: 179
#00008: 01
#TIL00: ""
#HISPEED 00
#MEASUREHS 00
#00017:13000013
#00014:0013
#00016:00130000
#00012:13000000000000000000000013000013
#0001b:00130000
#00019:0013
#00117:13000000000000000000000000000013
#0011b:00000000130000000000001300000000
#00116:00000013000000000000000013000000
#0011a:00000000000000140000000000000000
#00112:00000000000000140000000000000000
#00917:00000013000000000000001300000000
#0091b:1313
#00912:00130013
#00916:00000000000000130000000000000013
#00812:23131300
#0081b:00000000130000000000000013000013
#00816:00000013
#00817:13
#00810:41
#01318:00000000130000000000001300000000
#01312:23000000000000130000000000000000
#01315:00000013000000000000000013000000
#0131b:00000000000000002300000000000013
#01612:13000013
#01618:00000000000000000000000000000013
#0331b:00000013
#03312:16000013
#03315:00160000
#03318:00000000000000000000000000000013
#03415:13000000130000000000001300000000
#0341b:00001313
#03418:00000013000000130000000000000000
#03412:00001313
#03512:00130016
#03518:13000000000000000000000000000016
#03515:13
#0351b:00130000
#0401b:00130013
#04015:00000013000000130000001300000000
#04018:2313
#04012:13000013
#0401f:21
#04112:00130013
#04117:00130000
#04118:00000000000000000000000000000013
#0411b:13
#04115:0013
#04212:00130013
#04218:00000013000000130000001300000000
#04215:2313
#0421b:13000013
#04210:41
#04316:00130000
#04317:13
#04312:1313
#0431b:00000013
#04318:0013
#04418:26000013000000002600001300000000
#04415:00000000000000130000000000000000
#0441b:00130013
#04412:13261313
#04517:13
#0451b:00001313
#04512:13130000
#04516:0013
#04612:1414
#0461a:14000024
#04619:00130000
#04614:00130000
#04616:0024
#04716:14240000
#04712:24001313
#04718:00000000000000000000001313000000
#0541a:1414
#0541a:14
#05412:14000024
#05412:14
#05419:00130000
#05414:00130000
#05416:0024
#05612:1313
#05615:00130013
#05617:13
#05618:00000000000000000000001600000016
#05712:1313
#05715:00130023
#05718:00000016000000160000001600000000
#0591b:1313
#0591b:0013
#05912:00000016000000160000001600000000
#05918:00130023
#06012:25130013
#06015:00151315
#06017:0015001500150015
#06019:2515
#06115:13151315
#06112:00130013
#06119:1515
#06117:0015001500150015
#06215:13151300
#06212:00130013
#06219:15
#06217:0015001500000000
#06218:00000013
#06315:13
#0631b:1313
#06317:00000013
#06312:00000013
#0641b:13130000
#06416:0000130014000024
#06412:2400000000000014
#06414:00000000000000000000001400000000
#0641a:0024
#06418:00000000000000000000002400000000
#06410:41
#06516:00140014
#06518:16
#06512:0016
#07015:00130013001300130013001300130013
#07018:2323232323232323
#0711a:140014000000140014000014
#07116:001400001400001400001400
#07112:000000140014000000140000
#00212:13000000000000000000000013000013
#00219:0013
#0021b:00130000
#00217:00000013
#00216:00130000
#00214:0013
#00317:13
#0031b:00130000
#00316:00000013000000000000000000000000
#0031a:00000000000000140000000000000000
#00312:00000000000000140000000000000000
#00314:00000000000000000000002400000000
#00318:00000024
#00416:14141414
#0041b:13000000000000001300000000000013
#00412:00130013
#00516:13000000000000000000000000000013
#00512:00000000130000140000001300000000
#00517:00000013000000000000000013000000
#0051a:00000000000000140000000000000000
#0071b:00000013
#00714:0000000000000000000000000000140024000000000000000033333333333333
#0071a:00000014240000000000000000000000
#00712:24
#01712:13000013
#01716:000000000013000000000000000000000000000000000000
#0171b:00000000000000130000000000000000
#0181b:13000013
#01815:00000000000000000000000000000013
#0221b:13000000000000000000001300000013
#02216:14000000140000001400000000000013
#02212:00000000130000000000001300000000
#02317:000000000013000000000000000000000000000000000000
#02312:000000000013000000000000000000000000000000000000
#02316:0023
#0231b:0023
#03015:00000000000000130000000000000000
#03012:13000000000000000000001300000013
#03018:0013
#03017:00000000000000000000000000000013
#0301b:00000000130000000000001300000000
#03016:14140000
#03116:000000000013000000000000000000000000000000000000
#0311b:000000000013000000000000000000000000000000000000
#03118:00000016
#03112:00000000000000002300000000000016
#03117:0023
#02117:13
#02116:00141314
#0211b:00000000000000130000000000000000
#02012:00000000000000130000000000000013
#02015:00000013000000000000001300000000
#02010:41
#0191b:13000013
#01917:000000000013000000000000000000000000000000000000
#01912:00000000000000130000000000000000
#0101b:23131300
#01012:00000000130000000000000013000013
#01017:00000013
#01016:13
#01112:1313
#01116:00000013000000000000000000000000
#0111b:00130000
#01117:00000000000000130000000000000000
#01118:00000000000000000000002400000000
#01114:00000024
#03215:00160000
#03218:26000000000000000000000000000016
#03212:00000016
#0321f:11
#03915:00130000
#03918:00130000
#03912:13
#0391b:13
#03615:00160000
#03612:26000000000000000000000000000016
#03618:00000016
#03718:16
#03715:00000000160000000000000000000013
#03712:00000013
#0371b:00000013
#05515:00000000000000000000001313000000
#0551b:00001313
#05516:14240000
#0551a:24
#0581b:1313
#05818:00130013
#05816:13
#05812:00000000000000000000001600000016
#06816:00000000130000002400002400002400
#0681a:0000000014000014
#06812:24000000000000000000001400000000
#0681b:13130000
#06912:16
#06916:00140014
#06918:0016
#06612:13132400
#06616:0000000014000024
#0661a:2400000000000014
#06618:00000000000000000000001400000000
#06617:00130000
#06614:00000000000000000000002400000000
#06718:00141400
#06714:00141400
#0671b:00000013
#06716:00000013
#06712:24
#0671a:24
#01518:00000000000000142400000014000000
#01512:00000014240000000000000000000000
#0151a:24
#01514:00000024
#0121b:13000000000000002300000013000013
#01212:23131300
#03818:13000000130000000000001300000000
#03815:00000013000000130000000000000000
#03812:00001313
#0381b:00001313
#00612:00000000000000000000000000000014
#00618:000000000000000000000000240000000000000024000000000000000000000000140000240000000000000000000000
#0061b:23
#00614:000024240000
#0141a:00000000000000000000000000000014
#01414:000000000000000000000000240000000000000024000000000000000000000000140000240000000000000000000000
#01418:000024240000
#01412:23
#02916:13140014
#02917:0013
#02912:00000000000000130000000000000000
#0281b:00000000000000130000000000000013
#02818:00000013000000000000001300000000
#02810:41
#0241b:00000000000000000000130000000013
#02412:13000013
#02417:13
#02416:00130000
#02418:0013
#02516:13
#0251b:00000000000000130000000000000000
#02518:0000000000000000000000000000000000000013000000000000000000000000
#02512:000000000013000000000000000000000000130000000000
#02612:00000000000000000000130000000013
#0261b:13000013
#02616:13
#02617:00130000
#02615:0013
#02717:13
#02712:00000000000000130000000000000000
#02715:0000000000000000000000000000000000000013000000000000000000000000
#0271b:000000000013000000000000000000000000130000000000
#0481b:13000000000000130000000013000000
#04812:23001313
#04818:00000013000000000000001300000000
#04815:00130000
#05012:13000000000000130000000013000000
#05015:00000013000000000000001300000000
#0501b:23001313
#05018:00130000
#04912:13000013
#0491b:00131300
#04915:00000000000000000000000000000013
#04916:00130000
#04918:00000013
#05117:00130000
#05116:13
#0511b:1313
#05112:00000013
#05115:0013
#05215:00000013000000000000001300000000
#05218:00000000260000130000000000000000
#05212:26132613
#0521b:13001313
#05210:41
#05316:13
#05312:00001313
#0531b:13130000
#05317:0013
#07212:00000024
#07218:0000000000000000000000000000000000000000000000000034000000000000
#07219:00000000000000000000000000340000
#03952:6333
#0395b:6343
#03955:00230000
#03958:00230000
#04058:13
#04052:00000063
#0405b:00000043
#04157:00530000
#04152:00330000
#0425b:00000053
#04252:00000033
#04255:13
#04356:00630000
#04357:23
#04352:0023
#0435b:00430000
#0445b:00000053
#04452:00000033
#04557:23
#04552:00630033
#04556:0023
#0455b:00430000
#0465a:14
#04652:1454
#04656:00000014
#0475a:00140000
#04756:54
#0545a:1464
#0545a:14
#05452:14
#05452:14
#05456:00000014
#06552:0036
#06558:46
#07252:00000014
#00852:3363
#00856:00000023
#0085b:00230000
#00857:6333
#01652:13
#01752:63
#0175b:00000000000000630000000000000000
#01756:000000000023000000000000000000000000000000000000
#02357:000000000023000000000000000000000000000000000000
#02352:000000000023000000000000000000000000000000000000
#02356:0043
#0235b:0043
#0225b:43000000000000000000000000000053
#02256:00000000000000000000000000000053
#02252:00000000330000000000002300000000
#03156:000000000023000000000000000000000000000000000000
#0315b:000000000023000000000000000000000000000000000000
#03157:0033
#03152:0033
#03052:33000000000000000000000000000063
#03057:00000000000000000000000000000063
#0305b:00000000430000000000002300000000
#02157:63
#02156:0063
#0195b:53000000000000430000000000000000
#01957:000000000023000000000000000000000000000000000000
#01952:00000000000000530000000000000000
#01057:00000023
#0105b:1353
#01052:00230000
#01056:5343
#01256:00000013
#01257:00130000
#01252:0053
#0125b:53
#03255:00260000
#03258:6646
#03352:5636
#03355:00260000
#03655:00260000
#03652:6636
#03758:6646
#03755:00260000
#05652:13
#05657:53
#0585b:13
#05856:63
#06052:15
#06057:0065006500650065
#06059:2525
#06055:00250025
#06159:2525
#06157:0065006500650065
#06155:00250025
#06259:25
#06257:0065006500000000
#06255:00250000
#06958:0046
#06952:36
#0715a:000000000000000000000014
#06758:00444400
#06754:00343400
#01358:00130000
#01355:00000013
#03555:5343
#03552:00230000
#03558:6333
#0355b:00230000
#05556:64
#05552:00140000
#02956:53
#02957:0063
#02452:13
#02456:00530000
#02457:53
#02458:0053
#0245b:0000000000230000
#02556:53
#0255b:00000000000000630000000000000000
#02552:000000000023000000000000000000000000000000000000
#02558:0000000000000000000000000000000000000023000000000000000000000000
#02757:63000000000000330000000000000000
#02752:00000000000000530000000000000000
#02755:0000000000000000000000000000000000000023000000000000000000000000
#0275b:000000000023000000000000000000000000000000000000
#02652:0000000000230000
#02656:63
#02657:00630000
#02655:0063
#06852:14
#0665a:14
#06452:14
#0505b:13000043
#05052:00000063
#04852:13000033
#0485b:00000053
#04956:00630000
#0495b:00430000
#05157:00530000
#05156:23
#0515b:0023
#05152:00330000
#05252:00000063
#0525b:00000043
#05356:23
#0535b:00530043
#05357:0023
#05352:00330000
#007360:00000013
#007340:0000000000000000000000000000000000000000000000000033333333333333
#008320:23
#008371:1323
#0083b1:00530000
#008320:0013
#008360:00000053
#009320:23
#010360:1323
#010320:00530000
#0103b1:0013
#010371:00000053
#0113b1:23
#0123b1:13
#012371:00230000
#012321:0013
#012361:00000023
#0163b1:13
#016381:00230000
#016350:00130000
#016320:0023
#0163b1:0013
#016381:00000023
#017321:13000000000000230000000000000000
#017361:000000000053000000000000000000000000000000000000
#0173b0:00000000000000130000000000000000
#017370:00000023
#018320:13
#018350:00230000
#018381:00130000
#0183b1:0023
#018320:0013
#018350:00000023
#0193b0:13000000000000230000000000000000
#019370:000000000053000000000000000000000000000000000000
#019321:00000000000000130000000000000000
#019361:00000023
#020381:13000023000000000000000000000000
#0203b1:00000000130000230000000000000000
#020381:00000000000000001300002300000000
#0203b1:00000000000000000000000013000023
#021371:13
#0213b1:00230000
#021361:0013
#021321:00000023
#022321:00000000000000000000001300000000
#022361:00000000000000000000000000000033
#023321:000000000053000000000000000000000000000000000000
#023361:0023
#0223b0:00000000000000000000000000000013
#023370:000000000053000000000000000000000000000000000000
#0233b0:0023
#024370:13
#0243b0:00230000
#024361:00130000
#024321:0023
#024380:00001323
#0243b0:0000000000530000
#025360:13000000000000230000000000000000
#025320:000000000053000000000000000000000000000000000000
#0253b1:00000000000000130000000023000000
#025381:0000000000000000000000000000000000000053000000000000000000000000
#026361:13
#026321:00230000
#026370:00130000
#0263b0:0023
#026351:00001323
#026321:0000000000530000
#027371:13000000000000230000000000000000
#0273b1:000000000053000000000000000000000000000000000000
#027320:00000000000000130000000023000000
#027350:0000000000000000000000000000000000000053000000000000000000000000
#028350:13000023000000000000000000000000
#028320:00000000130000230000000000000000
#028350:00000000000000001300002300000000
#028320:00000000000000000000000013000023
#029360:13
#029320:00230000
#029370:0013
#0293b0:00000023
#0303b0:00000000000000000000001300000000
#030370:00000000000000000000000000000033
#0313b0:000000000053000000000000000000000000000000000000
#031370:0023
#030321:00000000000000000000000000000013
#031361:000000000053000000000000000000000000000000000000
#031321:0023
#032381:1626
#032351:00560000
#033321:1626
#033351:00560000
#035351:1323
#035321:00530000
#035380:1323
#0353b0:00530000
#036320:1626
#036350:00560000
#037380:1626
#037350:00560000
#0393b0:1323
#039380:00530000
#039321:1323
#039351:00530000
#040321:00000013
#041361:23
#041371:00130000
#0413b1:0023
#0423b1:00000013
#043371:53
#0433b1:00230000
#043360:00130023
#043320:0053
#0443b0:00000013
#045370:53
#0453b0:00230000
#045321:00130023
#045361:0053
#046321:0014
#046361:00000024
#047361:14
#0473a1:00240000
#0483b1:00000013
#049371:23
#049361:00130000
#049321:0023
#050321:00000013
#051361:53
#051321:00230000
#051370:00130023
#0513b0:0053
#052320:00000013
#053360:53
#053320:00230000
#0533b1:00130023
#053371:0053
#0543a1:0014
#054361:00000024
#055361:14
#055321:00240000
#056371:13
#0563b1:0023
#058361:13
#058321:0023
#060391:1555
#060371:0055005500550055
#060351:00550055
#061391:5555
#061371:0055005500550055
#061351:00550055
#062391:5525
#062371:0055005500000000
#062351:00550000
#063351:00130000
#063341:003300
#063331:000000000033000000000000
#063321:0023
#072361:00000014
#072381:0000000000000000000000000000000000000000000000000034000000000000
#072391:00000000000000000000000000340000
#0723a1:0000000000000000000000000000000000000000000000000000003400000000
#0763c1:22
