This file was generated by Ched 2.7.0.0.
#TITLE ""
#ARTIST ""
#DESIGNER ""
#DIFFICULTY 0
#PLAYLEVEL
#SONGID ""
#WAVE ""
#WAVEOFFSET 0
#JACKET ""
#REQUEST "ticks_per_beat 480"
#00002: 4
#BPM01: 179
#00008: 01
#TIL00: ""
#HISPEED 00
#MEASUREHS 00
#00015:00000013
#0001b:00130000
#00018:0013
#00012:13
#00112:13
#0011a:00000000000000140000000000000000
#00118:00000013000000000000000013000000
#00115:00000000130000000000001300000000
#00815:00000013
#00812:23
#00810:41
#00915:0013
#00912:13000013
#00918:00130000
#0091b:0013
#03512:00000013
#0351b:00000013
#0401a:00000014
#04019:00130000
#04014:00130000
#04012:0013
#04017:0013
#0401b:23
#04016:23
#0401f:21
#04116:14
#04119:00000013
#0451a:00140000
#04516:0014
#04612:1414
#0461a:14
#0471a:14000014
#04712:00000014
#0641b:00130000
#06412:1300000000000026
#06415:00000000130000000000002600000000
#06418:1326
#06410:41
#00218:0013
#0021b:00130000
#00215:00000013
#00212:13
#00318:00000013000000000000000024000000
#00312:13
#00315:00130000
#0031a:00000000000000140000000000000000
#00314:00000000000000000000002400000000
#00418:0013
#00415:00130013
#0041b:00130013
#00412:1313
#00512:13000000000000140000000000000000
#00515:00000000130000000000001300000000
#00518:00000013000000000000000013000000
#0051a:00000000000000140000000000000000
#03215:00160000
#0321f:11
#03218:26
#03312:16
#03315:00160000
#0331b:00000013
#03915:00130000
#03918:00130000
#03912:13
#0391b:13
#03615:00160000
#03612:26
#03718:16
#03715:00160000
#03712:00000013
#06014:0018001800180018
#06012:00180018
#06016:2818
#06116:1818
#06114:0018001800180018
#06112:00180018
#06216:1818
#06214:0018001800180000
#06212:00180018
#06213:0000000000000018
#01514:00000014
#01518:00000014000000140000000000000000
#0151a:24000024
#01512:00242400
#0121b:13
#01212:0013
#04415:1313
#04418:00130000
#04412:00230014
#0441b:2323
#00618:00000000000000000000001400000014
#0061a:24240000
#00612:24000024
#00714:00000014000000140000000000000000
#00712:24
#0071a:00242400
#00713:0000000000000000000000000000000000000000000000000033333333333333
#02418:00000000000000000000000000000013
#02512:13
#02518:0013
#02515:00000000000000130000000000000000
#01018:00000013
#0101b:23
#01118:0013
#0111b:13000013
#01115:00130000
#01112:0013
#01318:13
#01315:0013
#01414:00000000000000000000001400000014
#01412:24240000
#0141a:24000024
#01618:00000000000000000000000000000013
#01815:00000000000000000000000000000013
#02615:00000000000000000000000000000013
#0271b:13
#02715:0013
#02718:00000000000000130000000000000000
#01712:13
#01716:00000000000000130000000000000000
#0191b:13
#01917:00000000000000130000000000000000
#0211b:00000000000000130000000000000000
#02115:0013
#02118:13
#0221a:14
#02212:00140000
#02217:00000000000000001300001300000000
#0221b:00000000000000000000000000000013
#02012:13000000000000001300000000000013
#02018:1313
#0201b:00130013
#02015:00130013
#02010:41
#03016:00000000000000001300001300000000
#03012:14000000000000000000000000000013
#0301a:00140000
#03116:0000000000000013000000000000000000000000000000000000000000000000
#03112:0023
#03418:13
#03415:00130000
#0341b:0013
#03412:0013
#03419:00000013
#03414:00000013
#03815:13
#03818:00130000
#03812:0013
#0381b:0013
#03814:00000013
#03819:00000013
#04212:23000014
#04214:00130000
#04219:00130000
#0421b:0013
#04216:0013
#04217:23
#04210:41
#04316:14
#04812:23000014
#04816:00131300
#0481b:00131300
#04817:23
#04916:14
#04912:00000014
#0491a:00000014
#0541a:1414
#05412:14
#05218:1313
#05215:00130000
#0521a:00000014
#05212:2323
#0521b:00230000
#05210:41
#0501a:00000014
#05017:00131300
#05012:00131300
#0501b:23
#05016:23
#05116:14
#05512:14000014
#0551a:00000014
#05312:00140000
#05316:0014
#05618:16
#05615:0000000000160000
#05712:00000014
#0571a:00000014
#05812:16
#05815:0000000000160000
#05912:00000014
#0591a:00000014
#06612:00132600
#0661b:13
#06618:0000130000000026
#06615:13000000000000000000002600000000
#06814:00130000
#0681b:13
#06819:00130000
#06812:13000000000000000000002600000000
#06818:0000000026000026
#0711a:143434003434143434003400
#07117:00140014
#07115:1313
#07112:00130013
#07012:0013
#07015:13333333333333330033333333333333
#07015:00000000000000000000003300000000
#02912:00000000000000130000000000000000
#02918:0013
#02915:13
#0281b:13000000000000001300000000000013
#02815:1313
#02812:00130013
#02818:00130013
#02810:41
#02317:0000000000000013000000000000000000000000000000000000000000000000
#0231b:0023
#0671a:0014
#07217:0000000000000000000000000000000000000000000000000035000000000000
#07218:00000000000000000000000000350000
#03952:6333
#0395b:6343
#03955:00230000
#03958:00230000
#0405a:00000054
#04156:24
#0415a:00440000
#0455a:00540000
#04556:0024
#0465a:14
#04652:1454
#04656:00000014
#04756:00140000
#0475a:64
#01255:00000013
#01258:00130000
#01252:0053
#0125b:53
#03255:00260000
#03258:6646
#03352:5636
#03355:00260000
#03655:00260000
#03652:6636
#03758:6646
#03755:00260000
#06354:18
#06054:0068006800680068
#06056:2828
#06052:00280028
#06156:2828
#06154:0068006800680068
#06152:00280028
#06256:2828
#06254:0068006800580000
#06252:00280028
#06253:0000000000000068
#0105b:13
#01055:0013
#02552:53
#02558:0063
#00852:13
#00858:0013
#01358:53
#01355:0053
#0135b:00130000
#01352:00000013
#0275b:63
#02755:0053
#01752:53
#01756:00000000000000530000000000000000
#0195b:63
#01957:00000000000000630000000000000000
#0225a:44
#02252:00340000
#02257:00000000000000000000002300000000
#0225b:00000000000000000000000000000053
#02155:0063
#02158:63
#03056:00000000000000000000002300000000
#03052:34000000000000000000000000000063
#0305a:00440000
#03156:0000000000000023000000000000000000000000000000000000000000000000
#03152:0033
#03555:0013
#03558:0013
#04252:00000064
#04356:24
#04352:00340000
#04852:00000064
#0545a:1464
#05452:14
#05456:00000014
#0505a:00000054
#05552:54
#05556:00140000
#05156:54
#0515a:00140000
#04956:54
#04952:00140000
#04452:00000054
#05352:00640000
#05356:0024
#0525a:00000064
#05758:00160000
#05658:56
#05655:0000000000260000
#05852:66
#05855:0000000000260000
#05952:00160000
#0715a:540000000000540000000014
#07157:00540054
#07155:530000000000530000000013
#07152:00530053
#07052:0023
#07055:53
#02958:0053
#02955:53
#02357:0000000000000023000000000000000000000000000000000000000000000000
#0235b:0043
#06755:00140000
#0675a:0014
#0063a0:00140000
#006390:003400
#006380:000000000034000000000000
#006370:0024
#007350:00000013
#007330:0000000000000000000000000000000000000000000000000033333333333333
#008320:23
#0083b0:00130000
#008380:0023
#010320:00130000
#010350:0023
#0123b0:13
#012380:00230000
#012320:0013
#012350:00000023
#013380:13
#0133b0:00230000
#013350:0013
#013320:00000023
#014320:00140000
#014330:003400
#014340:000000000034000000000000
#014350:0024
#016350:13
#016320:00230000
#0163b0:0013
#016380:00000023
#017320:13000023
#017360:00000000000000330000000000000000
#018380:13
#0183b0:00230000
#018320:0013
#018350:00000023
#0193b0:13000023
#019370:00000000000000330000000000000000
#021380:13
#0213b0:00230000
#021350:0013
#021320:00000023
#022370:00000000000000000000001300000000
#0223b0:00000000000000000000000000000033
#023370:0000000000000053000000000000000000000000000000000000000000000000
#0233b0:0023
#024320:13
#024350:00230000
#024381:13
#0243b1:00230000
#024351:0013
#024321:00000023
#0243b0:0013
#024380:00000023
#025320:13
#025350:00230000
#025380:0013
#0253b0:00000023
#0263b0:13
#026380:00230000
#026351:13
#026321:00230000
#026381:0013
#0263b1:00000023
#026320:0013
#026350:00000023
#0273b0:13
#027380:00230000
#027350:0013
#027320:00000023
#029350:13
#029320:00230000
#029380:0013
#0293b0:00000023
#030360:00000000000000000000001300000000
#030320:00000000000000000000000000000033
#031360:0000000000000053000000000000000000000000000000000000000000000000
#031320:0023
#032380:1626
#032350:00560000
#033320:1626
#033350:00560000
#0353b0:13
#035380:0023
#035321:13
#035351:0023
#036321:1626
#036351:00560000
#037381:1626
#037351:00560000
#0393b1:1323
#039381:00530000
#039320:1323
#039350:00530000
#0403a0:00000014
#041360:54
#0413a0:00240000
#042320:00000014
#043360:54
#043320:00240000
#044320:00000014
#045360:24
#0453a0:00140024
#045360:0054
#046320:0014
#046360:00000024
#0473a0:14
#047360:00240000
#048320:00000014
#049360:34
#049320:00240000
#0503a0:00000014
#051360:34
#0513a0:00240000
#0523a0:00000014
#053360:24
#053320:00140024
#053360:0054
#0543a0:0014
#054360:00000024
#055320:14
#055360:00240000
#056380:16
#056350:0000000000560000
#057380:00260000
#058320:16
#058350:0000000000560000
#059320:00260000
#060360:1858
#060340:0058005800580058
#060320:00580058
#061360:5858
#061340:0058005800580058
#061320:00580058
#062360:5858
#062340:0058005800580000
#062320:00580058
#062330:0000000000000058
#063340:28
#0653a0:14
#065370:0054240000000000
#065320:0014
#065350:0000000000542400
#067320:14
#067350:0054240000000000
#069320:14
#069350:0054240000000000
#0693a0:0014
#069370:0000000000542400
#070350:13333333333333330033333333333333
#070320:0033
#071350:330000000000330000000023
#071320:00330033
#0713a1:143434003434343434003424
#071371:00340034
#072361:00000015
#072371:0000000000000000000000000000000000000000000000000035000000000000
#072381:00000000000000000000000000350000
#072391:0000000000000000000000000000000000000000000000000000003500000000
#0763b1:23
