This file was generated by Ched 2.7.0.0.
#TITLE ""
#ARTIST ""
#DESIGNER ""
#DIFFICULTY 0
#PLAYLEVEL
#SONGID ""
#WAVE ""
#WAVEOFFSET 0
#JACKET ""
#REQUEST "ticks_per_beat 480"
#00002: 4
#BPM01: 179
#00008: 01
#TIL00: ""
#HISPEED 00
#MEASUREHS 00
#00018:12000012
#00014:0012
#00016:00120000
#00012:12000000000000000000000012000012
#0001c:00120000
#0001a:0012
#00117:12000012000000000000000012000012
#0011c:00000000120000000000001200000000
#0011b:00000000000000130000000000000000
#00112:00000000000000130000000000000000
#00815:00000013000000130000000000000000
#0081b:00130013
#00816:00000013
#00818:00000000000000001600000000000013
#00812:2313
#00817:13
#00810:41
#0091b:1313
#00912:00130013
#00916:00000000000000000000000000000013
#01318:00130000
#01315:00000016000000160000001613000016
#0131b:1323
#01312:2313
#01617:00130013
#01612:14000013000000000000001300000000
#01616:00000000000000130000000000000000
#0161b:13000000000000001300000000000013
#04012:00120013
#04016:00000014000000140000001414000000
#0401c:0012
#04018:26
#0401f:21
#04416:24000018240000002400000000000000
#04412:22000000000000182200000014000000
#0441c:00220012
#04418:0000000000000012
#04612:1614
#04618:16
#04616:0024
#0461c:00000022
#04714:00000012
#0471a:00000012
#04716:000000000000000000000000240000001400000014000000140000000000000000140000000000000000000000000000
#04715:16
#04712:2200000000000000000000000000001c
#05612:15230000
#05617:13
#05615:00000000000000162300001600000016
#05618:00000023
#05715:00000016000000162300001600000000
#05712:00000023
#0571b:23000023
#05718:00230000
#06518:160000120000000000000013
#06512:00001612
#0651c:0012
#06516:12
#06515:000000000000000000000000000000000000000000000013
#07014:00000013000000000000001400000000
#07015:00130000000000002614000000000000
#07013:00000000001300000000000000140000
#07012:00000000000000130000000000000014
#07019:25
#07018:0025000000000026
#07016:0000002500260000
#07017:00250026
#0711b:13
#07118:001300000000000000000000
#07116:001213130000
#07119:000000130000001300000000
#07114:000000000012000000130000
#07112:000012
#07117:000000000013
#0711a:000000000000000000000014
#00212:12000000000000000000000012000012
#00214:0012
#00216:00120000
#0021c:00120000
#0021a:0012
#00218:00000012
#00317:12000012000000000000000000000000
#0031c:00120000
#0031b:00000000000000130000002323000000
#00312:00000000000000130000000000000000
#00315:00000000000000000000001300000000
#00517:12000012000000000000000012000012
#00512:00000000120000130000001200000000
#0051b:00000000000000130000000000000000
#0041c:12000000000000000000000000000012
#00417:12121212
#0071c:00120012
#00712:1212
#00716:00000012220000000000000000000000
#00718:22000000000000122200000000000000
#00715:0000000000000000000000000000000000000000000000000033333333333333
#02216:18000014000000141800001400000014
#02212:00000000180000000000001400000000
#0221a:00000000000000000000000000000014
#02312:000000000014000000000000000000000000140000000000
#02316:000000000014000000000000240000000000000000000000
#0231a:00002414
#06716:24001214
#06718:000000000000120000000000120000000000000000000013
#06712:12
#06715:000000000000000000000013
#01518:00000012000000000000000012000000
#0151c:1212
#01512:00120000
#01516:00000000230000120000000022000000
#01517:2323
#0121b:1323
#01212:2313
#01215:00000013000000130000000013000000
#01218:00000000130000000000001300000013
#03415:00120012
#03412:00000000000000001200000000000012
#03616:00000012000000000000001200000000
#03612:12000000000000120000000000000012
#03718:00000012000000000000001200000000
#0371c:00000000000000120000000000000000
#0311a:14140014
#03116:001400001400000000000000
#03112:0000140000142c0000140000
#03119:00000000000000000000000000000012
#0381a:00140014
#03812:1414
#04116:13141300
#0411a:1414
#04112:00000013
#04118:00000000000000000000000000000016
#05819:15
#05816:13
#05815:00000000000000160000001623000016
#05818:0023
#0581b:00230000
#05915:00000016230000160000001600000000
#0591b:00000023
#05912:23000023
#05918:0023
#0141b:1323
#01412:23230012
#01418:000000000000000000000000000000000000000023000000000000000000000000120000000000000000000000000000
#01416:00000000000000000000000023000012
#01415:002300
#01018:00000013000000130000000000000000
#01012:00131613
#01017:00000013
#01015:00000000000000000000000000000013
#0101b:2313
#01016:13
#01112:1313
#0111b:00000000130000000000002323000000
#01816:00130013
#0181b:13000013000000000000001300000000
#01817:00000000000000130000000000000000
#01812:13000000000000001300000000000013
#02116:00000000000000000000000000000014
#0211b:1313
#02115:1313
#02112:00130013
#02117:00130013
#03016:00000014180000140000001418000014
#03012:1818
#03215:00000000120000000000000012000012
#03212:1212
#0321f:11
#03319:00120012
#0331c:00000000000000001200000000000012
#03519:00120012
#0351c:00000000000000001200000000000012
#0061c:22000012
#00616:00000000000000000000001222000000
#00618:00000000000000000000000000000012
#00619:00220000
#00617:002200
#00615:000000000022000000000000
#00613:0022
#02016:00130013
#0201a:14
#02018:00000000000000130000000000000013
#0201b:00000013000000000000001300000000
#02012:1313
#02010:41
#01715:00000000160000160000000000000000
#01712:00000013
#0171b:0013
#01716:13
#01915:00000000160000160000000000000000
#0191b:00000013
#01912:0013
#01917:13
#02416:00130013
#0241a:14
#0241b:00000013000000000000001300000000
#02417:00000000000000130000000000000000
#02412:13000000000000001300000000000013
#02617:00130013
#02612:13000013000000000000001300000000
#02616:00000000000000130000000000000000
#0261b:13000000000000001300000000000013
#02515:00000000160000160000000000000000
#0251b:00000013
#02512:0013
#02517:13
#02715:00000000160000160000000000000000
#02712:00000013
#0271b:0013
#02716:13
#0661c:0000120012000012
#06612:13000000120000000000001200000000
#06616:00000000000000002400002400002400
#0661b:23
#0641b:13130000
#06412:2300130000000012
#06416:00000000000000001200002600000000
#06414:00000000000000000000001200002600
#06418:0026
#06410:41
#02916:00000000130000000000000013000014
#02912:1313
#02918:1313
#0291b:00130013
#02817:00130013
#02812:14000013000000000000001300000000
#02815:00000000000000130000000000000013
#0281b:1313
#02810:41
#06912:16121200
#0691c:00000012
#06918:1216
#06812:23132600
#0681b:13130000
#06818:0012
#0681a:00000000000000000000001200000000
#0681c:0000000000000012
#06814:00000000000000000000002600000000
#06816:0000000000000026
#04512:1516
#04517:0015000000160000
#0451c:00120000
#04518:0000001200000000
#0451a:00000014
#06312:1300001c
#06316:00130000
#06315:000000000000000000000013
#06318:000000000000000000003300000000000000000000000013
#0631b:00130000
#06319:003300
#0611a:00140000
#06115:14
#06112:0013
#06117:00000013
#06116:00140000
#0611b:00000013
#06012:28000000130000000000000000000013
#06016:00001813
#06017:00130000
#0601b:13000000000000000000001300000000
#06217:00000013
#06218:12
#06216:0013
#0621a:00120000
#0621c:0012
#06214:00130000
#0421c:00120000
#04216:00000014000000140000001414000000
#04212:2612
#0421b:00000013
#04210:41
#04317:1313
#04316:00140000
#04312:1414
#0431b:00000013
#0481c:00120000
#04816:00000014140000141400001414000000
#04812:2612
#0481b:00000013
#04818:16
#05212:00000018230000000000001812000000
#05216:24000000240000182400000000001200
#0521a:00000014
#0521b:2323
#05210:41
#05418:16
#05412:16000022
#0541a:0014
#05416:0024
#0551a:00000012
#05514:00000012
#05516:000000000000000000000000240000001400000014000000140000000000000000140000000000000000000000000000
#05515:16
#0551c:22
#04917:13
#04916:00140000
#04912:1400000000000000140000000000001c
#0491c:00000012
#04918:0012
#05012:16120013
#05016:00000014140000141400001414000000
#0501c:0012
#05018:26
#05116:13141300
#0511a:1414
#05112:00000000000000000000001313000000
#05319:15
#05314:0015000000000000
#05312:00120014
#05316:0000001200000000
#05318:0016
#05313:0000000000160000
#07212:00000022
#07217:0000000000000000000000000000000000000000000000000033000000000000
#07218:00000000000000000000000000330000
#04058:16
#04056:00000054
#04052:00000013
#07252:00000012
#00852:3363
#00856:00000023
#00857:63
#00858:0046
#01652:14
#0165b:5353
#02256:48000000000000000000000000000054
#02252:00000000380000000000002400000000
#0225a:00000000000000000000000000000054
#02352:000000000024000000000000000000000000000000000000
#02356:000000000024000000000000440000000000000000000000
#0235a:0044
#05652:15
#05657:53
#0715a:000000000000000000000014
#06756:0032
#06758:00425200
#06752:62
#01252:0053
#0125b:53
#01258:00430000
#01255:00000033
#04156:53540000
#0415a:5424
#04152:00130000
#05859:15
#05856:63
#01355:00000033
#01358:00430000
#01057:00000023
#0105b:4353
#01056:53
#01052:0036
#01852:6363
#0215b:6363
#02157:00630063
#02052:6363
#02056:00530053
#0205a:14
#0175b:0063
#01756:53
#01952:0053
#01957:63
#01955:00000000000000460000000000000000
#0245a:14
#02452:6363
#0265b:5353
#02552:0053
#02557:63
#02755:00000000000000360000000000000000
#0275b:0063
#02756:53
#04652:3654
#04655:00000016
#04658:46
#06552:0036
#06558:36
#0655c:0062
#06556:62
#03056:00480000
#03052:38
#02857:00630063
#02852:14
#0285b:5353
#02952:5353
#02956:00530053
#03252:12
#03652:12
#06952:4652
#06958:5246
#0445c:00000052
#04458:0000000000000022
#04452:00000034
#04552:65356636
#04557:0025000000260000
#0455c:00520000
#04558:0000002200000000
#06052:18
#06352:53
#06356:00530000
#0635b:00530000
#06155:54
#06152:0053
#06157:00000023
#0615a:00240000
#06257:00000063
#06256:0053
#03958:0016
#04256:00000064
#0425b:00000013
#04252:16
#04357:63
#04356:00640000
#04352:6424
#0435b:00130000
#04755:56
#0475a:00140000
#04856:00000064
#0485b:00000013
#04852:16
#05458:46
#05452:36
#0545a:0064
#05455:00000016
#04957:63
#04956:00640000
#04952:6424
#0495b:00130000
#05056:00000054
#05052:00000013
#05058:16
#05156:53540000
#0515a:5424
#05152:00130000
#05555:66
#05552:00140000
#05256:1400140014000022
#05252:00000062
#0525a:00000044
#05359:55450000
#05354:0025000000000000
#05352:00620000
#05356:0000002200000000
#05358:00005646
#05353:0000000000260000
#06452:13
#0665b:13
#06852:13
#004320:00000012220000000000000000000000
#0043c0:00000000000000122200000000000000
#004320:00000000000000000000001222000000
#007370:00000013
#007350:0000000000000000000000000000000000000000000000000033333333333333
#008320:23
#008371:13
#0083b1:00000023000000000000000000000000
#008321:0013
#008361:00000053
#009321:23
#009371:00000013230000000000000000000000
#009361:00000000000000132300000000000000
#009371:00000000000000000000001323000000
#010361:13
#010321:00000023000000000000000000000000
#0103b1:0013
#010371:00000053
#0113b1:23
#011361:00000013230000000000000000000000
#011371:00000000000000132300000000000000
#011361:00000000000000000000001323000000
#0123b1:13
#012381:00000023000000000000000000000000
#012321:0013
#012351:00000000000000000000002300000000
#0163b1:13
#016371:00000023000000000000000000000000
#0163b1:0013
#016371:00000000000000000000002300000000
#017361:13
#017321:00230000
#0173b1:0013
#017371:00000023
#018321:13
#018361:00000023000000000000000000000000
#018321:0013
#018361:00000000000000000000002300000000
#019371:13
#0193b1:00230000
#019321:0013
#019361:00000023
#020321:13
#020361:00000023000000000000000000000000
#020361:00130000
#020321:00000000000000230000000000000000
#020321:0013
#020361:00000000000000000000002300000000
#020361:00000013
#020321:00000000000000000000000000000023
#0213b1:13000000000000333300000000000023
#021371:00000033330000000000003333000000
#022321:00000000000000000000001400000000
#022361:00000000000000000000000000000034
#023321:000000000054000000000000000000000000000000000000
#023361:0024
#0223a0:00000000000000000000000000000014
#023360:000000000054000000000000000000000000000000000000
#0233a0:0024
#024320:13
#024360:00000023000000000000000000000000
#024320:0013
#024360:00000000000000000000002300000000
#025370:13
#0253b0:00230000
#025320:0013
#025360:00000023
#0263b0:13
#026370:00000023000000000000000000000000
#0263b0:0013
#026370:00000000000000000000002300000000
#027360:13
#027320:00230000
#0273b0:0013
#027370:00000023
#0283b0:13
#028370:00000023000000000000000000000000
#028370:00130000
#0283b0:00000000000000230000000000000000
#0283b0:0013
#028370:00000000000000000000002300000000
#028370:00000013
#0283b0:00000000000000000000000000000023
#029320:13000000000000333300000000000023
#029360:00000033330000000000003333000000
#032390:12000032000000003200003200000000
#0323c0:00000000320000320000000032000022
#033350:12000032000000003200003200000000
#033320:00000000320000320000000032000022
#0343c0:12000032000000003200003200000000
#034390:00000000320000320000000032000022
#035320:12000032000000003200003200000000
#035350:00000000320000320000000032000022
#0363c0:12000022000000000000000000000000
#036380:00000000120000220000000000000000
#0363c0:00000000000000001200002200000000
#036380:00000012
#0363c0:00000000000000000000000000000022
#037320:12000022000000000000000000000000
#037360:00000000120000220000000000000000
#037320:00000000000000001200002200000000
#037360:00000012
#037320:00000000000000000000000000000022
#038380:12
#0383c0:00000022000000000000000000000000
#038360:00130000
#038320:00000000000000230000000000000000
#038360:0014
#0383a0:00000000000000000000002400000000
#038360:00000014
#038320:00000000000000000000000000000024
#039320:140000000000000000000000000000000000000000000000000000000000540000000000000000000000000000000000000000000000000000000000540000000000000000000000000000000000000000000000000000000000540000000000000000000000000000000000000000000000000000000000540000000000000000000000000000000000000000000000000000000000540000000000000000000000000000000000000000000000000000000000540000000000000000000000000000000000000000000000000000000000540000000000000000000000000000000000000000000000000000000000540000000000000000000000000000000000000000000000000000000000540000000000000000000000000000000000000000000000000000000000540000000000000000000000000000000000000000000000000000000000540000000000000000000000000000000000000000000000000000000000540000000000000000000000000000000000000000000000000000000000540000000000000000000000000000000000000000000000000000000000540000000000000000000000000000000000000000000000000000000000540000000000000000000000000000000000000000000000000000000000360000000000000000000000000000000000000000000000000000000000000000000000000000000000000000000000000000000000000000000000000000000000000000000000000000000000000000000000000000000000000000000000000000000000000000000000000000000000000000000056000000000000000000000000000000000000000000000000000000000000000000000000000000000000000000000000000000000000000000000000000000000000000000000000000000000000000000000000000000000000000000000000000000000000000000000000000000000000000000000000000000000000000000000000000000000000000000000000000000000000000000000000000000000000000000000000000000000000000000000000000000000000000000000000000000000000000000000000000000000000000000000000000000000000000000000000000000000000000000000000365400000000000000000000000000000000000000000000000000000000000000000000000000000000000000000000000000000000000000000000340000000000000000000000000000000000000000000000000000000000000000000000000000000000000000000000000000000000000000000000
#039340:000000000000000000000000000000540000000000000000000000000000000000000000000000000000000000540000000000000000000000000000000000000000000000000000000000540000000000000000000000000000000000000000000000000000000000540000000000000000000000000000000000000000000000000000000000540000000000000000000000000000000000000000000000000000000000540000000000000000000000000000000000000000000000000000000000540000000000000000000000000000000000000000000000000000000000540000000000000000000000000000000000000000000000000000000000540000000000000000000000000000000000000000000000000000000000540000000000000000000000000000000000000000000000000000000000540000000000000000000000000000000000000000000000000000000000540000000000000000000000000000000000000000000000000000000000540000000000000000000000000000000000000000000000000000000000540000000000000000000000000000000000000000000000000000000000540000000000000000000000000000000000000000000000000000000000540000000000000000000000000000000000000000000000000000000000000000000000000000000000000000000000000000000000000000000000000000000000000000000000000000000000000000000000000000000000000000000000000000000000000000000000000000000000000000000000000000000000000000000000000000000000000000000000000000000000000000000000000000000000000000000000000000000000000000000000000000000000000000000000000000000000000000000000000000000000000000000000000000000000000000000000000000000000000000000000000000000000000000000000000000365400000000000000000000000000000000000000000000000000000000000000000000000000000000000000000000000000000000000000000000340000000000000000000000000000000000000000000000000000000000000000000000000000000000000000000000000000000000000000000054000000000000000000000000000000000000000000000000000000000000000000000000000000000000000000000000000000000000000000000000000000000000000000000000000000000000000000000000000000000000000000000000000000000000000000000000000000000000000000000000
#039360:000000000000000000000000000000000000000000000000000000000000000000000000000000000000000000000000000000000000000000000000000000000000000000000000000000000000000000000000000000000000000000000000000000000000000000000000000000000000000000000000000000000000000000000000000000000000000000000000000000000000000000000000000000000000000000000000000000000000000000000000000000000000000000000000000000000000000000000000000000000000000000000000000000000000000000000000000000000000000000000000000000000000000000000000000000000000000000000000000000000000000000000000000000000000000000000000000000000000000000000000000000000000000000000000000000000000000000000000000000000000000000000000000000000000000000000000000000000000000000000000000000000000000000000000000000000000000000000000000000000000000000000000000000000000000000000000000000000000000000000000000000000000000000000000000000000000000000000000000000000000000000000000000000000000000000000000000000000000000000000000000000000000000000000000000000000000000000000000000000000000000000000000000000000000000000000000000000000000000000000000000000000000000000000000000000000000000000000000000000000000000000000000000000000000000000000000000000000000000000000000540000000000000000000000000000000000000000000000000000000000000000000000000000000000000000000000000000000000000000000000000000000000000000000000000000000000000000000000000000000000000000000000000000000000000000000000000000000000000000000054000000000000000000000000000000000000000000000000000000000000000000000000000000000000000000000000000000000000000000000000000000000000000000000000000000000000000000000000000000000000000000000000000000000000000000000000000000000000000000000000000000000000000000000000000000000000000000000000000000000000000000000000000000000000000000000000000000000000000000000000000000000000000000000000000000000000000000000000000000000000000000000000000000000000000000000000000000000000000000000000
#040320:24
#039381:1454545454545454545454545454545426000000000000000000000000000000
#0393a1:00540054005400540054005400540054005400540054005400540054005400540000000000000000000000000000000000000000000000000000000000000000
#040360:00000014
#0413a0:5454
#041360:00540024
#041361:13
#041321:00230000
#042360:00000014
#043320:5454
#043360:00540024
#043371:13
#0433b1:00230000
#0443c0:00000012
#044380:0000000000000052
#0453c0:22
#045321:15250000
#045371:0055000000000000
#0453c0:00122200
#045380:0000005200000000
#045321:00001626
#045371:0000000000560000
#046321:0014
#046351:00000026
#047351:16
#0473a1:00240000
#048361:00000014
#049321:5454
#049361:00540024
#049370:13
#0493b0:00230000
#050361:00000014
#0513a1:5454
#051361:00540024
#051360:13
#051320:00230000
#052321:00000012
#052361:0000000000000052
#053321:22
#053390:15250000
#053340:0055000000000000
#053321:00122200
#053361:0000005200000000
#053380:00001626
#053330:0000000000560000
#0543a0:0014
#054350:00000026
#055350:16
#055320:00240000
#056370:13
#0563b0:00230000
#058360:13
#058320:00230000
#061350:1424
#0613a0:00340000
#061321:0013
#061371:00000033
#062321:23
#062361:0013
#062321:00000023
#062370:00000013
#0633b0:23
#063321:1323
#063361:00330000
#0633b0:00130000
#063390:003300
#063380:000000000033000000000000
#063370:0023
#065360:12
#065320:00220000
#0653c0:0012
#065380:00000022
#067320:12
#067360:00220000
#067380:0012
#0673c0:00000022
#069380:12
#0693c0:00220000
#069320:0012
#069360:00000022
#072350:00000013
#072370:0000000000000000000000000000000000000000000000000033000000000000
#072380:00000000000000000000000000330000
#0723b0:0000000000000000000000000000000000000000000000000000003300000000
#0763c0:22
