This file was generated by Ched 2.7.0.0.
#TITLE ""
#ARTIST ""
#DESIGNER ""
#DIFFICULTY 0
#PLAYLEVEL
#SONGID ""
#WAVE ""
#WAVEOFFSET 0
#JACKET ""
#REQUEST "ticks_per_beat 480"
#00002: 4
#BPM01: 179
#00008: 01
#TIL00: ""
#HISPEED 00
#MEASUREHS 00
#0001a:14
#00014:0014
#0011a:14
#00114:0014
#00218:14
#00212:0014
#00318:14
#00312:0014
#0061a:14
#00614:0014
#00718:14
#00712:0014
#0041a:14
#00414:0014
#00518:14
#00512:0014
#00812:0014
#0081a:24
#00810:41
#00918:1414
#00914:00140000
#01012:14
#0101a:0014
#01114:1414
#01118:00140000
#0121a:14
#01212:0014
#0131a:14
#01314:00140000
#01318:0014
#01412:14
#0141a:0014
#01512:14
#01518:00140000
#01514:0014
#01614:0014
#0161a:24
#01812:14
#01818:0014
#0201a:14
#02012:0014
#02010:41
#02414:0014
#02418:24
#0251a:14
#02512:00140000
#02518:0014
#0281a:14
#02814:00140000
#02818:0014
#02812:00000014
#02810:41
#03014:0014
#0301a:00000014
#03012:14
#03018:00140000
#03412:14
#03416:0014
#03714:14
#03612:14
#0381a:14
#03816:0014
#04014:00140000
#04018:0014
#0401a:24
#0401f:21
#04212:14
#04218:00140000
#04214:0014
#04210:41
#0411a:00000014
#04412:1414
#0441a:00140014
#04414:00140014
#04418:1414
#04714:24000014
#04712:00240000
#0471a:24
#04718:00240000
#04812:00140000
#04818:0014
#04814:00000014
#0481a:24
#04918:00000014
#05012:14
#0501a:00140000
#05014:0014
#05018:00000014
#0521a:1414
#05212:00140014
#05218:00140014
#05214:1414
#05210:41
#05512:24000014
#05518:24
#0551a:00240000
#05514:00240000
#0561a:14
#05618:0014
#05812:14
#05814:0014
#0571a:00000014
#05912:00000016
#06016:0016
#06017:00160016
#06018:26
#06118:16
#06116:0016
#06117:00160016
#06418:16
#06412:0016
#06410:41
#06612:16
#06618:0016
#06812:16
#06818:0016
#07112:00140000
#07116:0014
#0711a:00000014
#07218:00000016
#07018:0014
#0701a:14340034
#04512:00140000
#04518:00140000
#0531a:00140000
#05314:00140000
#06218:16
#06216:0016
#06217:00160016
#03318:14
#0321a:14
#0321f:11
#02212:14
#0221a:0014
#02614:14
#02618:0014
#02712:14
#0271a:00140000
#02714:0014
#04614:0024
#04612:00000024
#0461a:0024
#04618:00000024
#05418:0024
#0541a:00000024
#05412:0024
#05414:00000024
#06518:2424
#06514:00240000
#06712:24
#06716:00240000
#0671a:0024
#06914:2424
#06918:00240000
#0085a:14
#02352:0014
#03154:0014
#03754:64
#04152:00140000
#0435a:00140000
#04654:14
#0465a:14
#04952:00140000
#04854:00000054
#05058:00000064
#0515a:00140000
#05458:14
#05452:14
#0565a:54
#05658:0024
#05852:64
#05854:0024
#06056:0026
#06057:00560056
#06058:26
#06158:26
#06156:0026
#06157:00560056
#06358:16
#07258:00000056
#0705a:54
#07058:0024
#04454:00000054
#0445a:00000054
#04558:00540000
#04552:00540000
#05258:00000064
#05252:00000064
#0535a:00640000
#05354:00640000
#06258:26
#06256:0026
#06257:00560056
#03652:24
#03358:54
#0325a:24
#0173a0:1424
#019320:1424
#021380:14
#0213a0:0024
#023340:14
#023320:0024
#0293a0:14
#029380:0024
#031320:14
#031340:0024
#0323a0:14
#032380:0034
#033380:34
#0333a0:0024
#0353a0:1424
#036320:14
#036340:0034
#037340:34
#037320:0024
#039320:1424
#040320:00000014
#041320:00240000
#0423a0:00000014
#0433a0:00240000
#044340:00000014
#045320:00340000
#045340:00000034
#046340:24
#0443a1:00000014
#045381:00340000
#0453a1:00000034
#0463a1:24
#048341:00000014
#049321:00240000
#050381:00000014
#0513a1:00240000
#052381:00000014
#0533a1:00340000
#053381:00000034
#054381:24
#052320:00000014
#053340:00340000
#053320:00000034
#054320:24
#0563a0:14
#056380:0054
#0573a0:24
#058320:14
#058340:0054
#059320:24
#060380:16
#060370:00560056
#060360:0056
#061380:56
#061370:00560056
#061360:0056
#062380:56
#062370:00560056
#062360:0056
#063380:26
#0703a0:14340034
#070380:0034
#0713a0:24
#072380:00000016
#0763a0:24
