This file was generated by Ched 2.6.4.0.
#TITLE ""
#ARTIST ""
#DESIGNER ""
#DIFFICULTY 0
#PLAYLEVEL
#SONGID ""
#WAVE ""
#WAVEOFFSET 0
#JACKET ""
#REQUEST "ticks_per_beat 480"
#00002: 4
#BPM01: 145
#00008: 01
#TIL00: ""
#HISPEED 00
#MEASUREHS 00
#0011a:14
#0031a:14
#00212:14
#00412:14
#00518:14
#00510:41
#00618:14
#00714:14
#00814:14
#0131a:14
#01310:41
#01414:14
#0171a:14
#01814:14
#01612:14
#01518:14
#02112:14
#02110:41
#02218:14
#02512:14
#02618:14
#0241a:14
#02314:14
#0291a:14
#0291f:11
#0301a:14
#03212:14
#03112:14
#03418:14
#03318:14
#03718:2616
#0371f:21
#03818:1616
#03810:41
#03912:1616
#04118:1616
#04312:1616
#04012:1616
#04612:16
#04618:0016
#04812:1616
#05018:1616
#05212:1616
#05312:0016
#05318:26
#05512:16
#05518:0016
#05718:16
#05712:0016
#05912:16
#05918:0016
#06114:14
#0611a:0014
#06212:14
#06218:0014
#06518:14
#06512:0014
#0661a:14
#06614:0014
#04518:2616
#04712:16
#04718:0016
#05418:1616
#05612:1616
#06819:0014
#06813:0014
#04910:41
#06010:41
#009390:14
#010390:24
#011330:14
#012330:24
#0193a0:14
#0203a0:24
#027320:14
#028320:24
#035340:14
#036340:24
#042380:1626
#044320:1626
#049380:1626
#051320:1626
#058380:16362600
#060320:16362600
#063340:14
#063330:0034
#064320:24
#067380:14
#067390:0034
#0683a0:24
