This file was generated by Ched 2.6.4.0.
#TITLE ""
#ARTIST ""
#DESIGNER ""
#DIFFICULTY 0
#PLAYLEVEL
#SONGID ""
#WAVE ""
#WAVEOFFSET 0
#JACKET ""
#REQUEST "ticks_per_beat 480"
#00002: 4
#BPM01: 145
#00008: 01
#TIL00: ""
#HISPEED 00
#MEASUREHS 00
#00515:1300001300000013
#0051b:13130013
#00518:0013
#00512:0013
#00510:41
#00618:13000013000000000000000000000000
#00612:0013000013000000
#00615:0000130000000013
#0061b:0000001300001300
#0081a:0000000014003333
#00817:0000000000130000
#0081b:00000000000000000000000000130000
#00818:13000000000000000000003300000000
#00812:0000000014130000
#00819:00000000000000000000000000000033
#0071b:00000013000000001300000000000000
#00718:1300001300001300
#00712:13130000
#00715:0000000013000013
#00916:00000013000000000013000000000000
#0091b:0000130013000013
#00912:2300001300000000
#00917:00130000000000000000001300000000
#01012:1300001313000013
#0101b:0013130000131300
#01016:00000013000000000000001300000000
#01017:13000000000000130000000000001300
#0121b:1300001313130000
#01212:00001300130000000000000000130000
#01217:00000013000000000000000000000000
#01216:13000000000000130000130000000000
#01215:00000000000000000000003300000000
#01213:0000000000003333
#01214:00000000000000000000000000000033
#01312:0013000000130000
#01318:00130000
#01315:0000001300000000
#0131b:1313
#01316:0000000000000013
#01310:41
#0181b:13000000000000001300000000000013
#01819:0013000000000000
#01817:00130000
#01812:0000130000000013
#01816:13001314
#01814:0000001300000000
#01915:13000000000013000013000000000000
#01918:0013000013000000
#0191b:00000000130000000000001300000000
#01912:0000130000000013
#02017:13
#0361a:1313131300000000
#03616:0014
#03613:00130013001300130000000000000000
#03716:00131300
#03717:23000013
#03719:0000000000000013
#03712:2300001300001300
#0371b:00131300
#0371f:21
#0381b:13000013
#03812:0013000000000013
#03818:00000013000000000000000000000000
#03815:0013
#03816:13000013
#03810:41
#0441b:1300000000130000
#04417:0013000013000013
#04412:00000000130000000000000000000013
#04416:13000000000013000000001300000000
#04419:00000013
#04414:00000000000000000000000000130000
#06719:0000001300000000
#06717:00130000
#0671b:0000000013001313
#06818:13130000
#06815:00130000001300000000000000000000
#0681b:0013001300000000
#06812:00000013000000130000000000000000
#06816:0014
#03917:00131300
#03916:13000013
#03914:0000000000000013
#0391b:1300001300001300
#03912:00131300
#04012:13000013
#0401b:0013000000000013
#04015:00000013000000000000000000000000
#04018:0013
#04017:13000013
#04116:23130013
#0411b:2300130000001313
#04112:0000001313000000
#04117:0013
#04217:13
#0421b:0013000013001300
#04215:00000013000000000000000000000000
#04212:1300000000000013
#04216:00000013
#04317:13130013
#04312:1300130000001313
#0431b:0000001313000000
#04316:0013
#04517:23130000
#04512:00130013
#04518:0000000000000013
#04514:0000001300000000
#0451b:00001313
#04516:0013
#04612:13001313
#04615:0013000000000000
#0461b:00000013000000000000000000000000
#04618:13
#04614:0000000000000013
#04617:00000013
#04716:13130000
#0471b:13130013
#04715:0000000000000013
#04719:0000001300000000
#04712:00001313
#04717:0013
#0481b:13001313
#04818:0013000000000000
#04812:00000013000000000000000000000000
#04815:13
#04819:0000000000000013
#04912:00130013
#04916:0000000013000014
#04914:0000001300000000
#04917:23000013
#04910:41
#05016:13
#05012:0013000013001300
#05017:00000013000000000000000000000000
#0501b:13
#05014:0000000000000013
#0511b:00130013
#05116:1300000000001314
#05119:0000001300000000
#05117:0013
#05217:13
#0521b:0013000013000000
#05216:00000013000000000000000000000000
#05212:13
#05218:0000000000001313
#05215:00000000000000000000000000130013
#0531b:00001313
#05312:2316
#05318:2600001300000000
#05315:00130000
#05314:0000000000000013
#05316:00000013
#05319:0000000000000013
#05417:13
#0541b:0013000013000000
#05415:00000013000000000000000013000000
#05412:13130000
#05418:0000000000000013
#05512:16001313
#05518:00131600
#05515:0000001300000000
#05519:0000000000000013
#05517:00000013
#05514:0000000000000013
#0551b:13
#05616:13
#05612:00001300000000001300000000130000
#05618:00000013000000000000000013000000
#0561b:1300130000000013
#05615:00000000000000000000000000000013
#0571b:00131313
#05712:2300000016000013
#05718:2600001300000000
#05716:00000013
#05717:0000000000000013
#0581b:13130013
#05812:0013000000000000
#05818:00000013000000000000000000001300
#05815:0013
#05816:13
#05912:16131313
#05918:0016
#05915:0000001300000000
#0591b:1300000000000013
#05917:00000013
#05916:0000000000000013
#06012:13230000
#06016:0013000023000000
#0601b:00132323
#06017:2300001300000000
#06010:41
#06117:00131300
#0611b:0000001300000000
#06112:00000013
#06116:2300000000000013
#0621b:0013001300130000
#06212:13000013000013000000000000001300
#06218:00131300
#06215:00130013
#06316:00130000
#06314:0000001300000000
#06312:0000000013001313
#06416:1300000013000013
#06414:0013001300000000
#06412:00130013
#06612:0013001300130000
#0661b:00000013000013000000000000001300
#06615:00131300
#06616:13
#06618:00130013
#06516:00000013
#06512:2300000000000013
#0651b:00131300
#06517:2300001300000000
#02812:14
#02815:00000013000000000000130000000000
#02818:0000130000130000
#02918:0000001323000000
#02912:24000024000000000000130000000000
#0291b:0000000000000013
#02915:00000000000000130000000000000000
#0291f:11
#0291a:24000024000000000000000000000000
#03015:1313000013000013
#0301b:1313
#03012:0000130000130000
#03018:0000131300000000
#0341b:1300001300000000
#03412:00131300
#03417:0013
#03418:00000013
#03415:0000000000000013
#03512:1300001300000000
#03518:0013000000000000
#03515:00000013000000000000000000000000
#0351b:00000000001300000000000000000000
#03115:0000001323000000
#0311b:0000000000130000
#03112:24000024000000000000000000001300
#03118:00000000000000130000000000000000
#0311a:24000024000000000000000000000000
#03218:1313000013000013
#03212:1313
#0321b:0000130000130000
#03215:0000131300000000
#03318:0000001323000000
#03312:24000024000000000000130000000000
#0331b:0000000000000013
#03315:00000000000000130000000000000000
#0331a:24000024000000000000000000000000
#01117:00000013000000000013000000000000
#01112:0000130013000013
#0111b:2300001300000000
#01116:00130000000000000000001300000000
#00412:24000013
#00418:2400000000000013
#00416:00140000
#0041a:0024
#00414:0024
#00316:00140014
#00312:24
#00318:24
#0031a:0024
#00314:0024
#00216:00002314
#00212:23
#00217:23
#0021b:0023
#0151b:0013000000130000
#01515:00130000
#01518:0000001300000000
#01512:1313
#01517:0000000000000013
#02117:0013000000000000
#0211b:0000001300000000
#02112:0013
#02118:0000000000130000
#02115:00000000000000000000001300000000
#02116:0000000000000013
#02110:41
#02212:13000000130000001300001300000000
#02216:00001300000013000000000000000013
#02217:0000000000130000
#02219:00000013
#02214:00000000000000000000000000130000
#0221b:0000000000000013
#0261b:0000130000000013
#02612:13000000000000001300000000000013
#02616:00130014
#02614:0013000000000000
#02617:1313
#02619:0000001300000000
#02718:13000000000013000013000000000000
#02715:0013000013000000
#02712:00000000130000000000001300000000
#02716:0000000000000014
#0271b:00130000
#0271a:00000000000000000000000000000014
#02312:1300001300000000
#02316:0013000000000000
#0231b:0013
#02315:0000000000130000
#02318:00000000000000000000001300000000
#02317:0000000000000013
#0241b:13000000130000001300001300000000
#02417:00001300000013000000000000000013
#02416:0000000000130000
#02414:00000013
#02419:00000000000000000000000000130000
#02412:0000000000000013
#0251b:00131300
#02512:0000001300000000
#02517:0013001300130000
#02516:00000013
#0141b:13
#01419:00001300000000000000000000333300
#01416:00140000
#01414:0000001300000000
#01412:0013
#01417:00000000000000000000133300000000
#01418:00000033
#0141a:00000000000000000000000000000033
#01618:0000000000000013
#01612:13
#01614:00001300000000000000000000333300
#01616:00000000140000000000133300000000
#01619:0000001300000000
#0161b:0013
#01615:00000033
#01613:00000000000000000000000000000033
#01712:00131300
#0171b:0000001300000000
#01717:00000013
#01716:0013001300130000
#00112:23
#00117:23
#00116:0023
#0011b:0023
#03656:0014
#03752:33
#0375b:0043
#04457:0023000000000000
#0445b:63430000
#04452:00533300
#04456:3300002300000000
#06856:0014
#04156:33
#04157:0043
#04557:43
#04556:0033
#0395b:43
#03952:0033
#04357:43
#04356:0033
#04756:33
#04757:0043
#04956:0033
#04957:43
#05157:0043
#05156:33
#05358:46
#05352:0036
#05558:0046
#05552:36
#05752:0036
#05758:46
#05958:0046
#05952:36
#06052:53330000
#06056:0023000000000000
#0605b:00634300
#06057:4300002300000000
#0615b:43
#06156:33
#06157:0043
#06152:0033
#06255:00530053
#06252:0000002300000023
#06258:0063
#0625b:0000000000230000
#06352:0013
#06658:00630063
#0665b:0000002300000023
#06655:0053
#06652:0000000000230000
#06557:43
#06552:33
#0655b:0043
#06556:0033
#0675b:0013
#02952:0000000000630000
#02958:0013
#0315b:0000000000530000
#03155:0013
#03352:0000000000630000
#03358:0013
#0345b:53
#00952:0000001300000000
#0095b:0000000000000013
#0115b:0000001300000000
#01152:0000000000000013
#00857:0000000000630000
#0085b:00000000000000000000000000230000
#01256:0000000000530000
#01252:00000000000000000000000000230000
#01856:3333
#01857:00430000
#02057:63
#02855:0000000000230000
#02858:0000000000230000
#0285b:00000043
#02852:00000033
#02252:0013
#0245b:0013
#02557:0000000000230000
#0255b:0053
#01452:0013
#01457:0000000000530000
#0165b:0013
#01656:0000000000630000
#01756:0000000000230000
#01752:0063
#02656:00330000
#02657:4343
#008370:0000000000130000
#008380:00000000000000000000003300000000
#0083a0:0000000000003333
#0083b0:00000000000000000000000000330000
#008390:00000000000000000000000000000033
#009370:23
#009320:00000013
#009360:0000000000000023
#0113b0:00000013
#011370:0000000000000023
#012360:0000000000130000
#012350:00000000000000000000003300000000
#012330:0000000000003333
#012320:00000000000000000000000000330000
#012340:00000000000000000000000000000033
#013360:23
#013370:00000000000000000000001300000000
#0133b0:0000000000000023
#014370:00000000000000000000133300000000
#014380:00000033
#014390:00000000000000000000000000333300
#0143a0:00000000000000000000000000000033
#0153b0:23
#015360:00000000000000000000001300000000
#015320:0000000000000023
#016360:00000000000000000000133300000000
#016350:00000033
#016340:00000000000000000000000000333300
#016330:00000000000000000000000000000033
#017320:23
#0173b1:13230000
#017321:00001323
#017361:0000000000530000
#020371:13
#0203b1:0023
#020360:0013
#020350:00000000000000000033000000000000
#020340:0000000000330000
#020330:00000000000000000000003300000000
#020320:00000023
#020371:00000013
#020381:00000000000000000000000000330000
#020391:0000000000000033
#0203a1:00000000000000000000000000000033
#0213b1:23
#021320:1323000000000000
#021360:0000132300000000
#0213b0:0000000000000013
#022370:33332300
#0223b0:0033003300000000
#0233b0:1323000000000000
#023370:0000132300000000
#023320:0000000000000013
#024360:33332300
#024320:0033003300000000
#025320:13230000
#0253b0:00001323
#025370:0000000000530000
#028380:00000000000000130000530000000000
#0283b0:00000023
#028351:0000000013530000
#028321:00000023
#029321:0000000000130000
#029361:0000000000000023
#030381:00000000000000000000001300002300
#0313b1:0000000000130000
#031371:0000000000000023
#032351:00000000000000000000001300002300
#033321:0000000000130000
#033361:0000000000000023
#0343b1:13
#034371:00230000
#035381:0000000013230000
#035350:0000000000132300
#0353b1:0000000000001323
#035320:0000000000000013
#036320:23
#038350:0000132300000000
#0383b1:0000001323000000
#040381:0000132300000000
#040320:0000001323000000
#042380:0000132300000000
#042321:0000001323000000
#0443b1:13230000
#044371:0053000000000000
#044320:00132300
#044360:0000005300000000
#046320:00130000
#046360:0000002300000000
#0463b1:0000001323000000
#0483b1:00130000
#048371:0000002300000000
#048320:0000001323000000
#048360:00000013
#048340:0000000000000033
#049320:23
#049370:00130000
#049390:0000003300000000
#0493b0:0023
#050320:00130000
#050360:0000002300000000
#0503b1:0000001300000000
#050371:0023
#050371:00000013
#050391:0000000000000033
#0513b1:23
#051361:00130000
#051341:0000003300000000
#051321:0023
#0523b1:00130000
#052371:0000002300000000
#052320:0000001300000000
#052360:0023
#054380:0000132300000000
#054351:0000001323000000
#056351:0000132300000000
#056380:0000001323000000
#057320:00130000
#057350:0000002300000000
#058350:00130000
#058320:0000002300000000
#058381:0000001300000000
#0583b1:0023
#058321:00000013
#058351:0000000000000023
#0593b1:00130000
#059381:0000002300000000
#060321:13230000
#060361:0053000000000000
#0603b0:00132300
#060370:0000005300000000
#060361:00001323
#060341:00000000000000000033003300000000
#060321:0000000000330000
#0603b0:00000013
#060390:00000000000000000000000000330033
#060370:0000000000000033
#0613b0:23
#061320:00132300
#061360:0000003300000000
#061370:00000013
#0613b0:0000000000000033
#062370:23
#062350:00132300
#062320:0000003300000000
#062381:00001323
#0623b1:0000000000330000
#062350:00000013
#062320:0000000000000033
#063350:23
#0633b1:13
#0643b1:00003333330000002300000000000000
#064371:00000013
#0643b1:0000000000000033
#065371:23
#065361:00132300
#065321:0000003300000000
#0653b1:00000013
#065371:0000000000000033
#0663b1:23
#066381:00132300
#0663b1:0000003300000000
#066350:00001323
#066320:0000000000330000
#066381:00000013
#0663b1:0000000000000033
#067381:23
#067320:13
#068320:23
