This file was generated by Ched 2.6.4.0.
#TITLE ""
#ARTIST ""
#DESIGNER ""
#DIFFICULTY 0
#PLAYLEVEL
#SONGID ""
#WAVE ""
#WAVEOFFSET 0
#JACKET ""
#REQUEST "ticks_per_beat 480"
#00002: 4
#BPM01: 145
#00008: 01
#TIL00: ""
#HISPEED 00
#MEASUREHS 00
#0051b:13000013
#00515:0000000000000013
#00512:00131300
#00518:0000001300000000
#00510:41
#0061b:1313
#00612:0013000000000000
#00618:0000130000000013
#00615:0000001300001300
#00915:0000130000000013
#00918:0000001300001300
#00912:0013
#0091b:23
#0101b:13
#01012:0000000000000013
#01015:0013000000000000
#0101a:00130000
#01014:0000001300000000
#01019:0013
#01013:0000000000130000
#01018:00000013
#01312:0013000000130000
#01318:00000000130000000000001300000000
#01315:0000001300000013
#0131b:1313
#01310:41
#0141b:13
#01418:0013000013000000
#01415:00000000130000000000133300000000
#01412:00000000000013000000000000000033
#01414:00000033
#01413:00000000000000000000000000333300
#03718:00130000
#0371b:0000000013000013
#03715:0000001300001300
#03712:23
#0371f:21
#04416:00140000
#0441a:14000000000000000000003333000000
#04412:0014
#04418:00000000000000000000000000000033
#04419:00000000000000000000000000333300
#0681b:0013
#06815:00130000
#06818:0013001300000000
#06812:0013
#04515:0000001300000000
#04512:00130013
#04518:2300000013000013
#04915:2300001300001300
#04918:0000130013000013
#04912:00130000
#04910:41
#0501b:1300001300000000
#05012:00001313
#05018:00000013000000000000000013000000
#05015:0013130000000013
#05312:0014
#0531b:00000013
#05318:0000000000000013
#05315:00000013
#05316:00140000
#0531a:2400001400000000
#0541b:0013000000000000
#05415:00000013000000000000000000000000
#05412:1300001300000000
#05418:00131300
#0541a:0000000000000014
#05416:00000014
#06212:0013000000000000
#06218:13000013000000000000000000000000
#06215:00131300
#0621b:0000001300000000
#0611b:00000013
#06115:2300000000000013
#0611a:00141400
#06116:0000001400000000
#06112:0014
#0301b:1313
#03018:00000000130000000000001300000000
#03015:0013000000130000
#03012:0000001300000013
#03415:0000001300001300
#0341b:0000000000000013
#03418:0013
#03412:0013
#03512:1300000000130013
#03518:00001300001300000000000000000000
#0351b:00001313
#03515:00000013000013000000000000000000
#0041b:00000013
#00415:0000000023000013
#00412:00130000
#00418:23
#00715:0000001300001300
#00718:0000130000000013
#00712:13
#0071b:0013
#00812:1300000000130000
#00818:0013
#0081b:13000013
#00815:0000000000000013
#02718:00001300000000000000000000000013
#02712:00130000
#0271b:0000001300000000
#02715:1300000013000013
#01118:0000130000000013
#01115:0000001300001300
#0111b:0013
#01112:23
#0121a:0000000000130000
#01212:13
#01218:0013000000000000
#01213:00130000
#01219:0000001300000000
#01214:0000000013000013
#01217:00000013
#0151b:0013000000130000
#01515:00000000130000000000001300000000
#01518:0000001300000013
#01512:0013
#01612:13
#01615:0013000013000000
#01618:00000000130000000000133300000000
#0161b:00000000000013000000000000000033
#01619:00000033
#0161a:00000000000000000000000000333300
#0171b:13
#01712:0013
#0321b:0000001300000013
#03212:1313
#03215:00000000130000000000001300000000
#03218:0013000000130000
#03915:00130000
#03918:0000001300001300
#03912:0000000013000013
#0391b:13
#03818:00000013
#03815:0000001300000013
#03812:13
#0381b:0013
#03819:00000033000000000000000000000000
#03810:41
#04118:00130000
#0411b:0000000013000013
#04115:0000001300001300
#04112:23
#04018:0000001300000013
#04015:00000013
#0401b:13
#04012:0013
#04014:00000033000000000000000000000000
#04215:00000013000000000000000000001300
#04218:0013130000001300
#0421b:0013
#04212:1300001300000000
#0431b:13
#04315:00130000
#04318:0000001300001300
#04312:0000000013000013
#04718:1300001300000000
#0471b:00130013
#04715:0000000013000013
#04615:1300000000000013
#04612:0000001300001300
#04618:0013
#04619:00000033000000000000000000000000
#0481b:0000001300001300
#04815:00001313
#04818:1300000000000013
#04814:00000033000000000000000000000000
#0511b:00130000
#05115:0000130013000013
#05118:1300001300001300
#05212:1300001300000014
#05216:00000014
#0521b:0013
#05218:0013130000000000
#05215:00000013000000000000000000000000
#0551a:0014
#05516:00140000
#05512:1400001400001300
#05515:0000000000000013
#05518:00000013
#05612:0013000000001400
#05616:0000000000000014
#05618:00000013000000000000000000000000
#0561b:1300001300000000
#05615:00131300
#05712:0000000014000013
#0571a:24140000
#05716:0000001400000000
#05718:00000013
#05915:00000013
#0591b:0000000000000013
#0591a:0014
#05912:14140000
#05916:0000001400000000
#0581a:00000014
#05816:0000000000000014
#05815:0013000013000000
#05818:00000013000013000000000000000000
#05812:00130000
#0581b:1313
#06318:0013
#0661b:0013000000000000
#06615:13000013000000000000000000000000
#06618:00131300
#06612:0000001300000000
#06512:24141413
#06518:0000000000000013
#0651a:2414
#06516:0000001400000000
#06715:0013
#0261b:0000000000000013
#02612:1414
#02616:0014001400000000
#0261a:00140000
#06416:0000000000000014
#0641a:00000014
#06419:00000033000000000000000000000000
#02315:00000000130000000000001300000000
#0231b:0013000000130013
#02312:0000000013000013
#02318:0000001300000000
#02415:13131300
#02418:0013001300000000
#02218:13131300
#02215:0013001300000000
#02112:0013000000130013
#0211b:0000000013000013
#02118:00000000130000000000001300000000
#02115:0000001300000000
#02110:41
#0181a:1414
#01816:0014001400000000
#01812:0000140000000013
#02512:0013000000000000
#02515:0000001300000000
#02518:00130000
#0251b:0013
#02815:13130000
#0281b:00000013000000000000000000000000
#02818:00000000000000130000000000000000
#00312:00130000
#0031b:00000013
#00318:23
#00315:0023
#0021b:00000013
#00218:23
#00215:0023
#01918:1300000013000013
#0191b:00130000
#01912:0000001300000000
#01915:0013000000000000
#02915:0000001300000000
#0291f:11
#02918:23000023000000002300000000000000
#02912:23000023000000000000000000000000
#03118:0000001300000000
#03115:23000023000000002300000000000000
#0311b:23000023000000000000000000000000
#03315:0000001300000000
#03318:23000023000000002300000000000000
#03312:23000023000000000000000000000000
#00118:23
#00115:0023
#06012:24
#06016:00240000
#0601a:0024
#06015:00000000000000000000000000000033
#06014:00000000000000000000000000333300
#06013:00000000000000000000003333000000
#06010:41
#01455:0000000000630000
#01658:0000000000530000
#0175b:53
#01752:0053
#03752:13
#0375b:0013
#03952:0013
#0395b:13
#0415b:0013
#04152:13
#0435b:13
#04352:0013
#04452:0014
#04456:00140000
#0445a:14
#04558:1313
#04755:0013
#04758:13
#04955:13
#04958:0013
#05155:0013
#05158:13
#05352:0014
#0535a:14
#0555a:0014
#05552:14
#0575a:14
#05752:0014
#0595a:0014
#05952:14
#06358:0053
#06755:0053
#03658:0043
#03655:0033
#0655a:1414
#06552:1414
#02652:0014
#0185a:0014
#02852:00000013
#06255:0053
#06658:0063
#0255b:0063
#06052:14
#06056:00140000
#0605a:0014
#06152:0014
#0615a:0014
#06155:13
#014350:00000000000000000000133300000000
#014340:00000033
#014330:00000000000000000000000000333300
#014320:00000000000000000000000000000033
#015320:23
#016380:00000000000000000000133300000000
#016390:00000033
#0163a0:00000000000000000000000000333300
#0163b0:00000000000000000000000000000033
#0173b0:33
#017370:00230000
#017320:0013
#017360:00000023
#019350:00000000000000000013002300000000
#020320:13230000
#020370:0013
#020380:00000000000000000033000000000033
#020390:0000000000330033
#0203a0:00000000000000000000003300330000
#0203b0:00000033
#021370:23
#022340:0000000000130033
#022330:00000000000000000000003300330000
#022320:00000033
#022350:00000000000000000000000000000033
#023360:23
#024390:0000000000130033
#0243a0:00000000000000000000003300330000
#0243b0:00000033
#024380:00000000000000000000000000000033
#025370:23
#0253b0:0013
#025370:00000023
#027380:00000000000000000013002300000000
#028320:00001323
#029350:0000000000130023
#031380:0000000000130023
#033350:0000000000130023
#0343b0:13230000
#036380:13333333333333332300000000000000
#036351:00000000133333332300000000000000
#0383b1:0013000000000000
#038391:00000033000000000000000000000000
#038381:00230000
#040321:0013000000000000
#040341:00000033000000000000000000000000
#040351:00230000
#0443b1:0000000000130000
#0443a1:00000000000000000000003333000000
#044391:00000000000000000000000000333300
#044381:00000000000000000000000000000033
#045381:23
#046381:0013000000000000
#046391:00000033000000000000000000000000
#0463b1:00230000
#048351:0013000000000000
#048341:00000033000000000000000000000000
#048321:00230000
#060321:0000000000130000
#060331:00000000000000000000003333000000
#060341:00000000000000000000000000333300
#060351:00000000000000000000000000000033
#061351:23
#062351:0013
#062321:00000023
#063381:1300330033000033
#0633b1:0000003300003300
#0643b1:3333003300000000
#064391:00000033000000000000000000000000
#064381:00332300
#066381:0013
#0663b1:00000023
#067351:1300330033000033
#067321:0000003300003300
#068321:23
