This file was generated by Ched 2.6.4.0.
#TITLE ""
#ARTIST ""
#DESIGNER ""
#DIFFICULTY 0
#PLAYLEVEL
#SONGID ""
#WAVE ""
#WAVEOFFSET 0
#JACKET ""
#REQUEST "ticks_per_beat 480"
#00002: 4
#BPM01: 145
#00008: 01
#TIL00: ""
#HISPEED 00
#MEASUREHS 00
#00518:00000000000013000000000000130000
#00515:16000000001300001600000000001300
#0051b:00000000130000000000000000000013
#00512:00000000000000130000000013000000
#00510:41
#00618:00001300000000000000000013000013
#00612:00000013000000000000000000000000
#00615:1600000000000013
#0061b:00000000000000000000000000130000
#0081a:0014
#00812:00000000000000001400000000130000
#00818:00000000000000000000001300000013
#00815:0000000000130013
#0081b:00000013
#00918:00000013000000000013000013000000
#00915:00130000130000000000001300000000
#0091b:2300000013000013
#00912:2300001313000000
#01014:1300000000000013
#01016:0014141414141400
#0101a:00000014000000000000001400000000
#01019:1300000000000013
#01012:00000000000000140000000000000000
#01219:13
#01214:13
#01216:0014141414000000
#01212:00000014000000000000000000130000
#0121a:00000000000000140000000000000000
#01218:00000000000000000000000013000013
#01215:00000000000000000000001300001300
#0121b:0000000000130000
#01318:0000001300130013
#01312:00001300000000001300000000130000
#01315:13000000130000000000001300000000
#0131b:13131313
#01310:41
#01416:1313
#01419:0013000000000000
#01412:00000000130000000000000000130000
#01414:0000001300000000
#0141b:13001313
#01417:00130000
#01418:0000000000130013
#01415:00000000000000000000001300000013
#01819:0000000000000013
#01813:00000000000000000000000000000013
#01816:00000013
#01817:0000000000130000
#01815:00001300001300130000000000000000
#01818:00130013160013000000000000000000
#01812:1616
#0181b:0013
#01916:00000000000013000000001300000000
#01917:00000000000000001313000000000000
#01912:00000000000000001313000000000000
#0191b:00000000000000000000001300000000
#02017:13
#0201b:00000000130000000000001300000013
#02016:00130000
#02012:00001313
#02018:00000000000000000013000000130000
#02015:0000000000130013
#02014:0013001300000000
#0361b:13131300
#03618:00001600001300130000000000000000
#03612:1300131613000000
#03615:00130013000000000000000000000000
#03712:23130013
#03717:0000000000000013
#03715:0013001313000000
#03718:23000000001300130000130000000000
#0371b:0013
#0371f:21
#03812:13000013
#03816:0013001300000000
#03819:00000012000000000000000000000000
#0381b:00131300
#03815:0000000000000013
#03818:00000000000000000000000000130013
#03810:41
#04412:13000000000013000000000000000013
#04416:0013000013000016
#0441b:0013130000000000
#04417:0000001300001600
#04413:00000000000000000000000000130000
#04414:00330033000000000000001300000000
#04418:0000000000160000
#04419:00000000003300330000000000000000
#04512:13000000001300001300000000000000
#04516:0000000000001414
#04515:00001300000000130000130000000000
#0451b:2300001300001300
#04518:0013130013000000
#04514:00330033000000000000000000000000
#04612:13000000000000000000000000130000
#0461b:0013000000000013
#04615:00000013000000000000000000000013
#04616:14
#04618:00130013
#04912:2300130000001313
#04916:0014000000141300
#04915:00000000001616000000000000000000
#0491b:2300000013000013
#04910:41
#05017:13
#05015:00001300000000000000000000161600
#05018:00000013000000000000000000000000
#05012:00131313
#0501b:13
#05016:0000001300000000
#04815:00000000130000000000000000161600
#0481b:13000013
#04812:0013000000000000
#04818:00000013000000000000000000000000
#04816:14
#05218:00001300000000000000000000000013
#05216:13
#05215:00000013000000000000000000000000
#0521b:00131300
#05212:1300000000000013
#05217:0000001300000000
#05417:0013000013000000
#05412:00000013000000001300000000000000
#0541b:13000000130000130000000000001300
#05416:1300131300000000
#05415:00000000000000000000000000000013
#05818:00000013000000001300000000000000
#0581b:00130000
#05812:1c13
#05815:00000000130000130000000000000000
#06215:00000013000000000000000000000000
#06218:16130000
#06212:00130013
#06217:0000001300000013
#0621b:0000001300130013
#06216:0000000013130000
#06316:0000001313001300
#06312:0000130013000013
#0631b:13
#06412:13000000140000001300000000000013
#0641a:0014140000000000
#0641b:0000001300130000
#06415:00000000000000000000000000131600
#06418:00000016
#06416:00000014000000000000000000000000
#06417:0000001313130000
#02815:00000013000000001616161600000000
#02818:00000000130000130000000000000000
#02812:00000014
#0281a:00000014
#0291b:23000023000000000000130000000000
#02912:0000001300000000000000001300000023000000000000000000000013000000
#02916:2300000000130000
#0291f:11
#02917:0023
#03015:00130000001300000000000000000000
#0301b:13000000000013000000001300000000
#03012:00000013000000130000000000000000
#03018:0013130013000000
#03016:00000000000000000000131300000000
#0341b:1300001300000013
#03415:00130000001300001600000000000000
#03412:00000013000000130000000013000000
#03418:0013130000000000
#03417:00000013
#03416:0000000000000013
#03516:0013001300000012
#03517:13000013001300000000000000000000
#03512:13000013001300001600000014000000
#0351b:0013001300000000
#03518:0000000000121600
#0351a:0014
#00412:24142413
#00415:0000000000000013
#0041b:00000000000000000000000000000013
#00416:0000001400000000
#00418:00000000000000000000000000130000
#0041a:2424
#00312:24142400
#0031a:24002414
#00316:0000001400000014
#0021a:00000014
#00218:00132300
#00215:2300001300000000
#00216:0000000000000014
#00212:0023
#0021b:23
#02116:00000000130000001300131300000000
#02112:2300000000000013
#0211b:00001300000013000000001300000000
#02118:23
#02110:41
#0221b:13000000000013001300130000130000
#02216:1414141414000000
#02212:0013130000130013
#02218:00000000000000000000001300000013
#02215:00000013
#02715:00000000000000000000000000000013
#02717:00000000000013000000001300000000
#02716:00000000000000001313000000000000
#0271b:00000000000000001313000000001300
#02712:00000000000000000000001300000000
#00118:0000130023000013
#00115:2300001300001300
#0011b:23
#00112:0023
#00015:00000013
#00018:0000000000000013
#00712:13000000001300001300000000000000
#00715:00000000130000130000000000000000
#00718:00000013000013000000000000000000
#0071b:1313
#01112:00000013000000000013000000001300
#0111b:00130000000013000000001300000000
#01115:00130000000000001300001300000000
#01118:23000013000000000013000000000000
#03112:23000023000000000000130000000000
#0311b:0000001300000000000000001300000023000000000000000000000013000000
#03117:2300000000130000
#03116:0023
#03218:00130000001300000000000000000000
#03212:13000000000013000000001300000000
#0321b:00000013000000130000000000000000
#03215:0013130013000000
#03217:00000000000000000000131300000000
#03316:0000000000130000
#03317:0000001300000000000000000000000000000000000000000000000013000000
#0331b:2300000023130000
#03315:0000001300000000
#03312:23000023000000002300000000000000
#0391b:13130013
#03916:0000000000000013
#03918:0013001313000000
#03915:13000000001300130000130000000000
#03912:0013
#0401b:1300000000000013
#04017:0013001300000000
#04015:00000012000000000000000000130013
#04012:00131300
#04018:00000013
#01515:0000001300130013
#01518:13000000130000000000001300000000
#0151b:00001300000000001300000000130000
#01512:13131313
#01617:1313
#01614:0013000000000000
#0161b:00000000130000000000000000130000
#01619:0000001300000000
#01612:13001313
#01616:00130000
#01615:0000000000130013
#01618:00000000000000000000001300000013
#02317:00000000130000001300131300000000
#0231b:1300000000000013
#02312:00001300000013000000001300000000
#02315:13
#02412:13000000000013001300130000130000
#02416:1414141414000000
#0241b:0013130000130013
#02415:00000000000000000000001300000013
#02418:00000013
#0251b:0013001313000013
#02512:1300001300130013
#02515:0013000013000000
#02518:1300000000130000
#02618:16001300001300131600000000000000
#02615:00130013000013000000000000000000
#02612:00161300
#02617:00000013
#02616:0000000000130000
#02614:0000000000000013
#0261a:00000000000000000000000000000013
#04115:00131300
#04112:2300001300131300
#04118:23000000001300130000000000000000
#0411b:0013000013000000
#0421b:13130000
#04212:0013000000000013
#04218:00000013000000000000000000130013
#04215:00000013
#0431b:1300001300131300
#04315:13000000001300130000000000000000
#04318:00131300
#04312:0013000013000000
#06812:0016130013000000
#06818:00130013000016000000000000000000
#06815:00000000001300130000000000000000
#0681b:13131300
#0471b:00000000001300001300000000000000
#04716:0000000000001414
#04718:13000000000000130000130000000000
#04712:1300001300001300
#04715:0013130013000000
#0511b:1300130000001313
#05117:00000013
#05115:00000000001616000000000000000000
#05112:0000000013000013
#05116:0014000000140000
#05317:00000013
#05312:001300001300131c
#05318:0013000013000000
#05315:23000000000000130000130000000000
#0531b:2300001300130000
#05616:0013000013000000
#0561b:00000013000000001300000000000000
#05612:13000000130000130000000000000000
#05617:1300131300000000
#05518:13000000000000130000130000000000
#0551b:0013000013001300
#05515:0013000013000000
#05512:130000130013001c
#05516:00000013
#05718:0013000013000013
#05712:0013000000001c13
#05715:2300000000130000
#0571b:2300000000130000
#05912:0013000013001c13
#05918:0013000000000013
#0591b:1300000000130000
#05915:0000000000130000
#06013:00000000001400000000000016000000
#0601a:24000000000000000000000000130000
#06014:00000014000000000000000000001600
#0601b:00000000000000000000000000000013
#06019:00001400000000000000001300000000
#06012:00000000000000140000160000000000
#06015:00140000000000000000000000000000
#06017:0000001400000000
#06018:00260000
#06016:0028
#06010:41
#06112:00001300000000130000130016000000
#0611b:13000000001300000000130000000000
#06115:2600131616000000
#06118:0013000000000000
#06119:00330033000000000000000000000000
#06618:00000013000000000000000000000000
#06615:00130000
#0661b:00130013
#06616:0000001300000013
#06612:1600001300130013
#06617:0000000013130000
#06518:26000000001300001300000016000000
#0651b:00000000000000130000130000000000
#06515:2300001600000000
#06512:0013160016000000
#06517:0013000000000000
#06516:0000000000130000
#06717:0000001313001300
#0671b:0000130013000013
#06712:13
#01712:0013001313000013
#0171b:1300001300130013
#01718:0013000013000000
#01715:1300000000130000
#04452:53330000
#04456:0023000000000000
#0445b:00634300
#04457:4300002300000000
#04552:5333
#04555:0023000000000000
#04558:0033
#0455b:43
#06252:00530053
#06257:0000002300000023
#06256:0063
#0625b:0000000000230000
#0295b:0000000000630000
#02952:0000002300000000000000000000000033000000000000000000000000000000
#02956:53
#02957:0043
#02057:63
#0205b:00230000
#0095b:0000001300000000
#00952:0000000000000013
#01155:0000001300000000
#01158:0000000000000013
#0305b:00000000000000000000002300000000
#03056:00000000000000000000002300000000
#03152:0000000000530000
#0315b:0000002300000000000000000000000043000000000000000000000000000000
#03156:0033
#03157:63
#03257:00000000000000000000002300000000
#03252:00000000000000000000002300000000
#03356:0000000000630000
#03357:0000002300000000000000000000000000000000000000000000000000000000
#0335b:5343
#03352:0033
#0365b:0043
#03652:0033
#0145b:0013
#01456:0013
#01652:0013
#01657:0013
#01857:0000000000230000
#01858:00460000
#01852:3636
#0185b:0053
#0195b:00000000000000000000002300000000
#0215b:00000000000000000000005300000000
#02256:34443400
#02456:44344400
#02352:00000000000000000000006300000000
#02652:00366300
#02658:4646
#02656:0000000000230000
#02555:0023000053000000
#02552:6300000000230000
#0255b:0023000053000000
#02558:6300000000230000
#02752:00000000000000000000002300000000
#02852:00000034
#0285a:00000044
#06852:0033
#0685b:0043
#0495b:4333
#04952:4333
#0515b:3343
#05152:3343
#0555b:0043
#05555:0033
#05552:33
#05558:43
#05758:0043
#05755:33
#05752:0033
#0575b:43
#06155:3646
#0615b:63
#06158:0023000000000000
#0665b:00630063
#06656:0000002300000023
#06657:0053
#06652:0000000000230000
#06356:0000001353000000
#0635b:53
#06352:00131300
#06757:0000001363000000
#06752:63
#0675b:00131300
#0475b:0043
#04755:0043
#04758:33
#04752:33
#06558:4643
#06552:0036
#06555:33
#03758:13
#03752:13
#03755:0013
#0375b:0013
#03955:13
#0395b:13
#03958:0013
#03952:0013
#0605a:44
#06058:00460000
#06056:0048
#05358:0043
#05352:0033
#0535b:43
#05355:33
#0595b:43
#05952:0033
#05955:33
#05958:0043
#04352:0013
#04358:0013
#04355:13
#0435b:13
#0415b:0013
#04155:0013
#04152:13
#04158:13
#01758:0023000063000000
#0175b:5300000000230000
#01752:0023000063000000
#01755:5300000000230000
#0063b0:00132300
#006351:0000001323000000
#007351:00000013
#008351:23
#007380:0000000000000013
#008380:23
#0093b0:0000132300000000
#009320:0000000000001323
#011350:0000132300000000
#011380:0000000000001323
#0173b0:13230000
#017380:0053000000000000
#017351:13230000
#017321:0053000000000000
#017321:00001323
#017351:0000000000530000
#017380:00001323
#0173b0:0000000000530000
#0183b0:00001323
#018370:0000000000530000
#019360:13
#0193b0:0023000000000000
#019371:0013000000000000
#019321:00230000
#019360:00130000
#0193b0:0000002300000000
#0193b0:00000000000000000000001300000000
#019370:0000000000000023
#019321:0000000000000013
#020321:23
#020370:1323
#0203b0:00530000
#021360:0013003300000000
#021320:00332300
#0213b0:00000000000000000000001300000000
#021370:0000000000000023
#023370:0013003300000000
#0233b0:00332300
#023320:00000000000000000000001300000000
#023360:0000000000000023
#025320:13230000
#025350:0033000000000000
#025381:13230000
#0253b1:0033000000000000
#0253b1:00001323
#025381:0000000000530000
#025350:00001323
#025320:0000000000530000
#026320:00001323
#026360:0000000000530000
#027370:13
#027320:0023000000000000
#027361:0013000000000000
#0273b1:00230000
#027370:00130000
#027320:0000002300000000
#027320:00000000000000000000001300000000
#027360:0000000000000023
#028380:13000023000000000000000000000000
#028350:00000000130000230000000000000000
#029360:13000023000000000000000000000000
#029320:0000005300000000000000000000000000000000000000000000000000000000
#029370:00000000000013230000000000000000
#029321:00000000000000132300000000000000
#0293b1:0000000000130000
#029371:0000000000000023
#0303b1:00000000000000000000001300000000
#030371:0000000000000023
#030360:00000000000000000000001300000000
#030320:0000000000000023
#031370:13000023000000000000000000000000
#0313b0:0000005300000000000000000000000000000000000000000000000000000000
#031360:00000000000013230000000000000000
#0313b1:00000000000000132300000000000000
#031321:0000000000130000
#031361:0000000000000023
#032321:00000000000000000000001300000000
#032361:0000000000000023
#032370:00000000000000000000001300000000
#0323b0:0000000000000023
#0333b0:13000023000000000000000000000000
#033370:0000005300000000000000000000000000000000000000000000000000000000
#033380:00000000000013230000000000000000
#033321:00000000000000132300000000000000
#033361:0000000000130000
#033321:0000000000000023
#037371:00000013
#0373b1:0000000000000033
#038371:23
#038361:00132300
#038321:0000003300000000
#039361:00000013
#039321:0000000000000033
#040361:23
#040371:00132300
#0403b1:0000003300000000
#041371:00000013
#0413b1:0000000000000023
#041320:0000000000000013
#042360:23
#042350:00132300
#042320:0000003300000000
#042381:0000001300000000
#0423b1:0023
#043361:00000013
#043321:0000000000000023
#0433b0:0000000000000013
#044370:23
#044321:13230000
#044341:00330033000000000000000000000000
#044361:0033000000000000
#0443b0:00132300
#044390:00000000003300330000000000000000
#044370:0000003300000000
#045320:13230000
#045340:00330033000000000000000000000000
#045350:0033000000000000
#046320:00132300
#046360:0000003300000000
#0463b1:0000001300000000
#046371:0023
#0483b1:00132300
#048371:0000003300000000
#048320:0000001300000000
#048360:0023
#048320:00000000000000000000000013230000
#0483b0:00000000000000000000000000000013
#0493b0:23
#0493b0:00000000132300000000000000000000
#049320:00000000000000132300000000000000
#0503b0:0000133300000000
#050370:0023
#0503b0:00000000000000000000000013230000
#050320:00000000000000000000000000000013
#051320:23
#051320:00000000132300000000000000000000
#0513b0:00000000000000132300000000000000
#052320:0000133300000000
#052360:0023
#052320:00000000000000000000000013230000
#052381:00000000000000000000000000132300
#0533b1:00000000132300000000000000000000
#053350:00000000001323000000000000000000
#054380:00000000000000000000000013230000
#054321:00000000000000000000000000132300
#055351:00000000132300000000000000000000
#0553b0:00000000001323000000000000000000
#056320:00000000000000000000000013230000
#056381:00000000000000000000000000132300
#056350:00000000000000000000000000001323
#0563b1:00000000000000000000000000000013
#0573b1:23
#0573b1:00000000132300000000000000000000
#057350:00000000001323000000000000000000
#057381:00000000000013230000000000000000
#057320:00000000000000132300000000000000
#058320:00001323000000000000000000000000
#0583b0:00000000000013230000000000000000
#058380:00000000000000000000000013230000
#058321:00000000000000000000000000132300
#0583b0:00000000000000000000000000001323
#058351:00000000000000000000000000000013
#059351:23
#059351:00000000132300000000000000000000
#0593b0:00000000001323000000000000000000
#059321:00000000000013230000000000000000
#059380:00000000000000132300000000000000
#0613b0:13230000
#061390:00330033000000000000000000000000
#061380:0033000000000000
#061380:0000000000001323
#061351:0000000000000013
#062351:23
#0623b1:00001323000000000000000000000000
#062321:00132300
#062371:0000003300000000
#062360:00001323
#0623b0:0000000000330000
#062321:00000013
#062371:0000000000000033
#063321:23
#0633b0:1300003300003300
#063360:0000330033000033
#0643b0:23
#065350:0000000000001323
#065381:0000000000000013
#066381:23
#066321:00001323000000000000000000000000
#0663b1:00132300
#066361:0000003300000000
#066370:00001323
#066320:0000000000330000
#0663b1:00000013
#066361:0000000000000033
#0673b1:23
#067320:1300003300003300
#067370:0000330033000033
#068320:23
